  0
SECTION
  2
HEADER
  9
$ACADVER
  1
AC1018
  9
$ACADMAINTVER
 70
   104
  9
$DWGCODEPAGE
  3
ANSI_1252
  9
$INSBASE
 10
0.0
 20
0.0
 30
0.0
  9
$EXTMIN
 10
-742.499970
 20
-524.999990
 30
0.000000
  9
$EXTMAX
 10
742.500020
 20
525.000000
 30
0.000000
  9
$LIMMIN
 10
0.0
 20
0.0
  9
$LIMMAX
 10
420.0
 20
297.0
  9
$ORTHOMODE
 70
     0
  9
$REGENMODE
 70
     1
  9
$FILLMODE
 70
     1
  9
$QTEXTMODE
 70
     0
  9
$MIRRTEXT
 70
     0
  9
$LTSCALE
 40
50.000000
  9
$ATTMODE
 70
     1
  9
$TEXTSIZE
 40
2.5
  9
$TRACEWID
 40
1.0
  9
$TEXTSTYLE
  7
Standard
  9
$CLAYER
  8
0
  9
$CELTYPE
  6
ByLayer
  9
$CECOLOR
 62
   256
  9
$CELTSCALE
 40
1.0
  9
$DISPSILH
 70
     0
  9
$DIMSCALE
 40
1.0
  9
$DIMASZ
 40
2.5
  9
$DIMEXO
 40
0.625
  9
$DIMDLI
 40
3.75
  9
$DIMRND
 40
0.0
  9
$DIMDLE
 40
0.0
  9
$DIMEXE
 40
1.25
  9
$DIMTP
 40
0.0
  9
$DIMTM
 40
0.0
  9
$DIMTXT
 40
2.5
  9
$DIMCEN
 40
2.5
  9
$DIMTSZ
 40
0.0
  9
$DIMTOL
 70
     0
  9
$DIMLIM
 70
     0
  9
$DIMTIH
 70
     0
  9
$DIMTOH
 70
     0
  9
$DIMSE1
 70
     0
  9
$DIMSE2
 70
     0
  9
$DIMTAD
 70
     1
  9
$DIMZIN
 70
     8
  9
$DIMBLK
  1

  9
$DIMASO
 70
     1
  9
$DIMSHO
 70
     1
  9
$DIMPOST
  1

  9
$DIMAPOST
  1

  9
$DIMALT
 70
     0
  9
$DIMALTD
 70
     3
  9
$DIMALTF
 40
0.03937007874016
  9
$DIMLFAC
 40
1.0
  9
$DIMTOFL
 70
     1
  9
$DIMTVP
 40
0.0
  9
$DIMTIX
 70
     0
  9
$DIMSOXD
 70
     0
  9
$DIMSAH
 70
     0
  9
$DIMBLK1
  1

  9
$DIMBLK2
  1

  9
$DIMSTYLE
  2
ISO-25
  9
$DIMCLRD
 70
     0
  9
$DIMCLRE
 70
     0
  9
$DIMCLRT
 70
     0
  9
$DIMTFAC
 40
1.0
  9
$DIMGAP
 40
0.625
  9
$DIMJUST
 70
     0
  9
$DIMSD1
 70
     0
  9
$DIMSD2
 70
     0
  9
$DIMTOLJ
 70
     0
  9
$DIMTZIN
 70
     8
  9
$DIMALTZ
 70
     0
  9
$DIMALTTZ
 70
     0
  9
$DIMUPT
 70
     0
  9
$DIMDEC
 70
     2
  9
$DIMTDEC
 70
     2
  9
$DIMALTU
 70
     2
  9
$DIMALTTD
 70
     3
  9
$DIMTXSTY
  7
Standard
  9
$DIMAUNIT
 70
     0
  9
$DIMADEC
 70
     0
  9
$DIMALTRND
 40
0.0
  9
$DIMAZIN
 70
     0
  9
$DIMDSEP
 70
    44
  9
$DIMATFIT
 70
     3
  9
$DIMFRAC
 70
     0
  9
$DIMLDRBLK
  1

  9
$DIMLUNIT
 70
     2
  9
$DIMLWD
 70
    -2
  9
$DIMLWE
 70
    -2
  9
$DIMTMOVE
 70
     0
  9
$LUNITS
 70
     2
  9
$LUPREC
 70
     4
  9
$SKETCHINC
 40
1.0
  9
$FILLETRAD
 40
10.0
  9
$AUNITS
 70
     0
  9
$AUPREC
 70
     0
  9
$MENU
  1
.
  9
$ELEVATION
 40
0.0
  9
$PELEVATION
 40
0.0
  9
$THICKNESS
 40
0.0
  9
$LIMCHECK
 70
     0
  9
$CHAMFERA
 40
10.0
  9
$CHAMFERB
 40
10.0
  9
$CHAMFERC
 40
20.0
  9
$CHAMFERD
 40
0.0
  9
$SKPOLY
 70
     0
  9
$TDCREATE
 40
2452006.439837951
  9
$TDUCREATE
 40
2452006.356504618
  9
$TDUPDATE
 40
2452006.439963946
  9
$TDUUPDATE
 40
2452006.356630613
  9
$TDINDWG
 40
0.0001273843
  9
$TDUSRTIMER
 40
0.0001272685
  9
$USRTIMER
 70
     1
  9
$ANGBASE
 50
0.0
  9
$ANGDIR
 70
     0
  9
$PDMODE
 70
     0
  9
$PDSIZE
 40
0.0
  9
$PLINEWID
 40
0.0
  9
$SPLFRAME
 70
     0
  9
$SPLINETYPE
 70
     6
  9
$SPLINESEGS
 70
     8
  9
$HANDSEED
  5
7EB
  9
$SURFTAB1
 70
     6
  9
$SURFTAB2
 70
     6
  9
$SURFTYPE
 70
     6
  9
$SURFU
 70
     6
  9
$SURFV
 70
     6
  9
$UCSBASE
  2

  9
$UCSNAME
  2

  9
$UCSORG
 10
0.0
 20
0.0
 30
0.0
  9
$UCSXDIR
 10
1.0
 20
0.0
 30
0.0
  9
$UCSYDIR
 10
0.0
 20
1.0
 30
0.0
  9
$UCSORTHOREF
  2

  9
$UCSORTHOVIEW
 70
     0
  9
$UCSORGTOP
 10
0.0
 20
0.0
 30
0.0
  9
$UCSORGBOTTOM
 10
0.0
 20
0.0
 30
0.0
  9
$UCSORGLEFT
 10
0.0
 20
0.0
 30
0.0
  9
$UCSORGRIGHT
 10
0.0
 20
0.0
 30
0.0
  9
$UCSORGFRONT
 10
0.0
 20
0.0
 30
0.0
  9
$UCSORGBACK
 10
0.0
 20
0.0
 30
0.0
  9
$PUCSBASE
  2

  9
$PUCSNAME
  2

  9
$PUCSORG
 10
0.0
 20
0.0
 30
0.0
  9
$PUCSXDIR
 10
1.0
 20
0.0
 30
0.0
  9
$PUCSYDIR
 10
0.0
 20
1.0
 30
0.0
  9
$PUCSORTHOREF
  2

  9
$PUCSORTHOVIEW
 70
     0
  9
$PUCSORGTOP
 10
0.0
 20
0.0
 30
0.0
  9
$PUCSORGBOTTOM
 10
0.0
 20
0.0
 30
0.0
  9
$PUCSORGLEFT
 10
0.0
 20
0.0
 30
0.0
  9
$PUCSORGRIGHT
 10
0.0
 20
0.0
 30
0.0
  9
$PUCSORGFRONT
 10
0.0
 20
0.0
 30
0.0
  9
$PUCSORGBACK
 10
0.0
 20
0.0
 30
0.0
  9
$USERI1
 70
     0
  9
$USERI2
 70
     0
  9
$USERI3
 70
     0
  9
$USERI4
 70
     0
  9
$USERI5
 70
     0
  9
$USERR1
 40
0.0
  9
$USERR2
 40
0.0
  9
$USERR3
 40
0.0
  9
$USERR4
 40
0.0
  9
$USERR5
 40
0.0
  9
$WORLDVIEW
 70
     1
  9
$SHADEDGE
 70
     3
  9
$SHADEDIF
 70
    70
  9
$TILEMODE
 70
     1
  9
$MAXACTVP
 70
    64
  9
$PINSBASE
 10
0.0
 20
0.0
 30
0.0
  9
$PLIMCHECK
 70
     0
  9
$PEXTMIN
 10
1.000000000000000E+20
 20
1.000000000000000E+20
 30
1.000000000000000E+20
  9
$PEXTMAX
 10
-1.000000000000000E+20
 20
-1.000000000000000E+20
 30
-1.000000000000000E+20
  9
$PLIMMIN
 10
0.0
 20
0.0
  9
$PLIMMAX
 10
420.0
 20
297.0
  9
$UNITMODE
 70
     0
  9
$VISRETAIN
 70
     1
  9
$PLINEGEN
 70
     0
  9
$PSLTSCALE
 70
     1
  9
$TREEDEPTH
 70
  3020
  9
$CMLSTYLE
  2
Standard
  9
$CMLJUST
 70
     0
  9
$CMLSCALE
 40
20.0
  9
$PROXYGRAPHICS
 70
     1
  9
$MEASUREMENT
 70
     1
  9
$CELWEIGHT
370
    -1
  9
$ENDCAPS
280
     0
  9
$JOINSTYLE
280
     0
  9
$LWDISPLAY
290
     0
  9
$INSUNITS
 70
     4
  9
$HYPERLINKBASE
  1

  9
$STYLESHEET
  1

  9
$XEDIT
290
     1
  9
$CEPSNTYPE
380
     0
  9
$PSTYLEMODE
290
     1
  9
$FINGERPRINTGUID
  2

  9
$VERSIONGUID
  2

  9
$EXTNAMES
290
     1
  9
$PSVPSCALE
 40
0.0
  9
$OLESTARTUP
290
     0
  9
$SORTENTS
280
   127
  9
$INDEXCTL
280
     0
  9
$HIDETEXT
280
     1
  9
$XCLIPFRAME
290
     0
  9
$HALOGAP
280
     0
  9
$OBSCOLOR
 70
   257
  9
$OBSLTYPE
280
     0
  9
$INTERSECTIONDISPLAY
280
     0
  9
$INTERSECTIONCOLOR
 70
   257
  9
$DIMASSOC
280
     2
  9
$PROJECTNAME
  1

  0
ENDSEC
  0
SECTION
  2
CLASSES
  0
CLASS
  1
ACDBDICTIONARYWDFLT
  2
AcDbDictionaryWithDefault
  3
ObjectDBX Classes
 90
        0
 91
        1
280
     0
281
     0
  0
CLASS
  1
ACDBPLACEHOLDER
  2
AcDbPlaceHolder
  3
ObjectDBX Classes
 90
        0
 91
        1
280
     0
281
     0
  0
CLASS
  1
LAYOUT
  2
AcDbLayout
  3
ObjectDBX Classes
 90
        0
 91
        2
280
     0
281
     0
  0
CLASS
  1
DICTIONARYVAR
  2
AcDbDictionaryVar
  3
ObjectDBX Classes
 90
        0
 91
        7
280
     0
281
     0
  0
CLASS
  1
TABLESTYLE
  2
AcDbTableStyle
  3
ObjectDBX Classes
 90
     4095
 91
        1
280
     0
281
     0
  0
CLASS
  1
MATERIAL
  2
AcDbMaterial
  3
ObjectDBX Classes
 90
     1153
 91
        3
280
     0
281
     0
  0
CLASS
  1
VISUALSTYLE
  2
AcDbVisualStyle
  3
ObjectDBX Classes
 90
     4095
 91
       16
280
     0
281
     0
  0
CLASS
  1
SCALE
  2
AcDbScale
  3
ObjectDBX Classes
 90
     1153
 91
       17
280
     0
281
     0
  0
CLASS
  1
MLEADERSTYLE
  2
AcDbMLeaderStyle
  3
ACDB_MLEADERSTYLE_CLASS
 90
     4095
 91
        1
280
     0
281
     0
  0
CLASS
  1
CELLSTYLEMAP
  2
AcDbCellStyleMap
  3
ObjectDBX Classes
 90
     1152
 91
        2
280
     0
281
     0
  0
CLASS
  1
EXACXREFPANELOBJECT
  2
ExAcXREFPanelObject
  3
EXAC_ESW
 90
    33793
 91
        0
280
     0
281
     0
  0
CLASS
  1
NPOCOLLECTION
  2
AcDbImpNonPersistentObjectsCollection
  3
ObjectDBX Classes
 90
     1153
 91
        0
280
     0
281
     0
  0
CLASS
  1
LAYER_INDEX
  2
AcDbLayerIndex
  3
ObjectDBX Classes
 90
        0
 91
        0
280
     0
281
     0
  0
CLASS
  1
SPATIAL_INDEX
  2
AcDbSpatialIndex
  3
ObjectDBX Classes
 90
        0
 91
        0
280
     0
281
     0
  0
CLASS
  1
IDBUFFER
  2
AcDbIdBuffer
  3
ObjectDBX Classes
 90
        0
 91
        0
280
     0
281
     0
  0
CLASS
  1
RASTERVARIABLES
  2
AcDbRasterVariables
  3
ISM
 90
        0
 91
        2
280
     0
281
     0
  0
CLASS
  1
IMAGEDEF
  2
AcDbRasterImageDef
  3
ISM
 90
        0
 91
        5
280
     0
281
     0
  0
CLASS
  1
IMAGEDEF_REACTOR
  2
AcDbRasterImageDefReactor
  3
ISM
 90
        1
 91
        5
280
     0
281
     0
  0
CLASS
  1
IMAGE
  2
AcDbRasterImage
  3
ISM
 90
     2175
 91
        5
280
     0
281
     1
  0
CLASS
  1
LWPOLYLINE
  2
AcDbPolyline
  3
ObjectDBX Classes
 90
        0
 91
        0
280
     0
281
     1
  0
CLASS
  1
OLE2FRAME
  2
AcDbOle2Frame
  3
ObjectDBX Classes
 90
        0
 91
        0
280
     0
281
     1
  0
CLASS
  1
HATCH
  2
AcDbHatch
  3
ObjectDBX Classes
 90
        0
 91
        0
280
     0
281
     1
  0
CLASS
  1
XRECORD
  2
AcDbXrecord
  3
ObjectDBX Classes
 90
        0
 91
        9
280
     0
281
     0
  0
CLASS
  1
SORTENTSTABLE
  2
AcDbSortentsTable
  3
ObjectDBX Classes
 90
        0
 91
        0
280
     0
281
     0
  0
CLASS
  1
OBJECT_PTR
  2
CAseDLPNTableRecord
  3
"ASE-LPNTableRecord"
 90
    32769
 91
        0
280
     0
281
     0
  0
CLASS
  1
PLOTSETTINGS
  2
AcDbPlotSettings
  3
ObjectDBX Classes
 90
        0
 91
        0
280
     0
281
     0
  0
CLASS
  1
VBA_PROJECT
  2
AcDbVbaProject
  3
acad
 90
        0
 91
        0
280
     0
281
     0
  0
CLASS
  1
WIPEOUT
  2
AcDbWipeout
  3
WipeOut|AutoCAD Express Tool|expresstools@autodesk.com
 90
    32895
 91
        0
280
     0
281
     1
  0
CLASS
  1
WIPEOUTVARIABLES
  2
AcDbWipeoutVariables
  3
WipeOut|AutoCAD Express Tool|expresstools@autodesk.com
 90
    32768
 91
        0
280
     0
281
     0
  0
CLASS
  1
RTEXT
  2
RText
  3
RText|AutoCAD Express Tool|expresstools@autodesk.com
 90
    32768
 91
        0
280
     0
281
     1
  0
CLASS
  1
ARCALIGNEDTEXT
  2
AcDbArcAlignedText
  3
ATEXT|AutoCAD Express Tool|expresstools@autodesk.com
 90
    32768
 91
        0
280
     0
281
     1
  0
ENDSEC
  0
SECTION
  2
TABLES
  0
TABLE
  2
VPORT
  5
201
100
AcDbSymbolTable
 70
     2
  0
VPORT
  5
202
100
AcDbSymbolTableRecord
100
AcDbViewportTableRecord
  2
*ACTIVE
 70
     0
 10
0.000000
 20
0.000000
 11
1.000000
 21
1.000000
 12
50.000000
 22
50.000000
 13
0.000000
 23
0.000000
 14
1.000000
 24
1.000000
 15
10.000000
 25
10.000000
 16
0.000000
 26
0.000000
 36
1.000000
 17
0.000000
 27
0.000000
 37
0.000000
 40
100.000000
 41
1.387409
 42
50.000000
 43
0.000000
 44
0.000000
 50
0.000000
 51
0.000000
 71
     0
 72
   100
 73
     1
 74
     1
 75
     0
 76
     0
 77
     0
 78
     0
  0
ENDTAB
  0
TABLE
  2
LTYPE
  5
203
330
0
100
AcDbSymbolTable
 70
    10
  0
LTYPE
  5
204
330
203
100
AcDbSymbolTableRecord
100
AcDbLinetypeTableRecord
  2
ByBlock
 70
     0
  3

 72
    65
 73
     0
 40
0.000000
  0
LTYPE
  5
205
330
203
100
AcDbSymbolTableRecord
100
AcDbLinetypeTableRecord
  2
ByLayer
 70
     0
  3

 72
    65
 73
     0
 40
0.000000
  0
LTYPE
  5
206
330
203
100
AcDbSymbolTableRecord
100
AcDbLinetypeTableRecord
  2
CONTINUOUS
 70
     0
  3
Solid line
 72
    65
 73
     0
 40
0.000000
  0
LTYPE
  5
207
330
203
100
AcDbSymbolTableRecord
100
AcDbLinetypeTableRecord
  2
HIDDEN
 70
     0
  3
_ _ _ _ _ _ _ _ _ _ _ _ _ _ _ _ _ _ _ _ _ _ _
 72
    65
 73
     2
 40
0.375000
 49
0.250000
 74
     0
 49
-0.125000
 74
     0
  0
LTYPE
  5
208
330
203
100
AcDbSymbolTableRecord
100
AcDbLinetypeTableRecord
  2
DOT
 70
     0
  3
...............................................
 72
    65
 73
     2
 40
0.250000
 49
0.000000
 74
     0
 49
-0.250000
 74
     0
  0
LTYPE
  5
209
330
203
100
AcDbSymbolTableRecord
100
AcDbLinetypeTableRecord
  2
DASHED
 70
     0
  3
__ __ __ __ __ __ __ __ __ __ __ __ __ __ __ 
 72
    65
 73
     2
 40
0.750000
 49
0.500000
 74
     0
 49
-0.250000
 74
     0
  0
LTYPE
  5
20A
330
203
100
AcDbSymbolTableRecord
100
AcDbLinetypeTableRecord
  2
DASHDOT
 70
     0
  3
__ . __ . __ . __ . __ . __ . __ . __ . __ . __
 72
    65
 73
     4
 40
1.000000
 49
0.500000
 74
     0
 49
-0.250000
 74
     0
 49
0.000000
 74
     0
 49
-0.250000
 74
     0
  0
LTYPE
  5
20B
330
203
100
AcDbSymbolTableRecord
100
AcDbLinetypeTableRecord
  2
BORDER
 70
     0
  3
__ __ . __ __ . __ __ . __ __ . __ __ . __ __
 72
    65
 73
     6
 40
1.750000
 49
0.500000
 74
     0
 49
-0.250000
 74
     0
 49
0.500000
 74
     0
 49
-0.250000
 74
     0
 49
0.000000
 74
     0
 49
-0.250000
 74
     0
  0
LTYPE
  5
20C
330
203
100
AcDbSymbolTableRecord
100
AcDbLinetypeTableRecord
  2
CENTER
 70
     0
  3
____ _ ____ _ ____ _ ____ _ ____ _ ____ _ ____
 72
    65
 73
     4
 40
2.000000
 49
1.250000
 74
     0
 49
-0.250000
 74
     0
 49
0.250000
 74
     0
 49
-0.250000
 74
     0
  0
LTYPE
  5
20D
330
203
100
AcDbSymbolTableRecord
100
AcDbLinetypeTableRecord
  2
DIVIDE
 70
     0
  3
__ . . __ . . __ . . __ . . __ . . __ . . __
 72
    65
 73
     6
 40
1.250000
 49
0.500000
 74
     0
 49
-0.250000
 74
     0
 49
0.000000
 74
     0
 49
-0.250000
 74
     0
 49
0.000000
 74
     0
 49
-0.250000
 74
     0
  0
ENDTAB
  0
TABLE
  2
LAYER
  5
20E
100
AcDbSymbolTable
 70
     1
  0
LAYER
  5
20F
100
AcDbSymbolTableRecord
100
AcDbLayerTableRecord
  2
0
 70
     0
 62
     7
  6
CONTINUOUS
370
    -3
390
     0
  0
LAYER
  5
21B
100
AcDbSymbolTableRecord
100
AcDbLayerTableRecord
  2
L
 70
     0
 62
     7
  6
CONTINUOUS
370
    -3
390
     0
  0
LAYER
  5
5A4
100
AcDbSymbolTableRecord
100
AcDbLayerTableRecord
  2
MASSE
 70
     0
 62
     7
  6
CONTINUOUS
370
    -3
390
     0
  0
ENDTAB
  0
TABLE
  2
STYLE
  5
780
100
AcDbSymbolTable
 70
     2
  0
STYLE
  5
781
100
AcDbSymbolTableRecord
100
AcDbTextStyleTableRecord
  2
STANDARD
 70
     0
 40
0.000000
 41
1.000000
 50
0.000000
 71
     0
 42
3.500000
  3
txt
  4

  0
STYLE
  5
782
100
AcDbSymbolTableRecord
100
AcDbTextStyleTableRecord
  2
TXT8
 70
     0
 40
0.000000
 41
1.000000
 50
0.000000
 71
     0
 42
3.500000
  3
txt8
  4

  0
ENDTAB
  0
TABLE
  2
DIMSTYLE
  5
783
100
AcDbSymbolTable
100
AcDbDimStyleTable
 70
    11
  0
DIMSTYLE
105
784
100
AcDbSymbolTableRecord
100
AcDbDimStyleTableRecord
  2
CAD400-DIM0
 70
     0
  3

  4

  5

  6

  7

 40
5.000000
 41
2.000000
 42
1.947000
 43
0.000000
 44
15.322000
 45
0.000000
 46
0.000000
 47
0.000000
 48
0.000000
140
3.500000
141
0.000000
142
0.000000
143
25.400000
144
1.000000
145
0.000000
146
1.000000
147
0.090000
 71
     0
 72
     0
 73
     0
 74
     0
 75
     0
 76
     0
 77
     1
 78
     8
170
     0
171
     2
172
     1
173
     0
174
     0
175
     0
176
     3
177
     3
178
     7
  0
DIMSTYLE
105
785
100
AcDbSymbolTableRecord
100
AcDbDimStyleTableRecord
  2
CAD400-DIM1
 70
     0
  3

  4

  5

  6

  7

 40
5.000000
 41
2.000000
 42
0.010000
 43
0.000000
 44
1.800000
 45
0.000000
 46
0.000000
 47
0.000000
 48
0.000000
140
3.500000
141
0.000000
142
0.000000
143
25.400000
144
1.000000
145
0.000000
146
1.000000
147
0.090000
 71
     0
 72
     0
 73
     0
 74
     0
 75
     0
 76
     0
 77
     1
 78
     8
170
     0
171
     2
172
     1
173
     0
174
     0
175
     0
176
     3
177
     3
178
     7
  0
DIMSTYLE
105
786
100
AcDbSymbolTableRecord
100
AcDbDimStyleTableRecord
  2
CAD400-DIM2
 70
     0
  3

  4

  5

  6

  7

 40
5.000000
 41
2.000000
 42
9.359000
 43
0.000000
 44
1.800000
 45
0.000000
 46
0.000000
 47
0.000000
 48
0.000000
140
3.500000
141
0.000000
142
0.000000
143
25.400000
144
1.000000
145
0.000000
146
1.000000
147
0.090000
 71
     0
 72
     0
 73
     0
 74
     0
 75
     0
 76
     0
 77
     1
 78
     8
170
     0
171
     2
172
     1
173
     0
174
     0
175
     0
176
     3
177
     3
178
     7
  0
DIMSTYLE
105
787
100
AcDbSymbolTableRecord
100
AcDbDimStyleTableRecord
  2
CAD400-DIM3
 70
     0
  3

  4

  5

  6

  7

 40
5.000000
 41
2.000000
 42
1.820000
 43
0.000000
 44
1.800000
 45
0.000000
 46
0.000000
 47
0.000000
 48
0.000000
140
3.500000
141
0.000000
142
0.000000
143
25.400000
144
1.000000
145
0.000000
146
1.000000
147
0.090000
 71
     0
 72
     0
 73
     0
 74
     0
 75
     0
 76
     0
 77
     1
 78
     8
170
     0
171
     2
172
     1
173
     0
174
     0
175
     0
176
     3
177
     3
178
     7
  0
DIMSTYLE
105
788
100
AcDbSymbolTableRecord
100
AcDbDimStyleTableRecord
  2
CAD400-DIM4
 70
     0
  3

  4

  5

  6

  7

 40
5.000000
 41
2.000000
 42
8.707000
 43
0.000000
 44
1.800000
 45
0.000000
 46
0.000000
 47
0.000000
 48
0.000000
140
3.500000
141
0.000000
142
0.000000
143
25.400000
144
1.000000
145
0.000000
146
1.000000
147
0.090000
 71
     0
 72
     0
 73
     0
 74
     0
 75
     0
 76
     0
 77
     1
 78
     8
170
     0
171
     2
172
     1
173
     0
174
     0
175
     0
176
     3
177
     3
178
     7
  0
DIMSTYLE
105
789
100
AcDbSymbolTableRecord
100
AcDbDimStyleTableRecord
  2
CAD400-DIM5
 70
     0
  3

  4

  5

  6

  7

 40
5.000000
 41
2.000000
 42
18.457000
 43
0.000000
 44
1.800000
 45
0.000000
 46
0.000000
 47
0.000000
 48
0.000000
140
3.500000
141
0.000000
142
0.000000
143
25.400000
144
1.000000
145
0.000000
146
1.000000
147
0.090000
 71
     0
 72
     0
 73
     0
 74
     0
 75
     0
 76
     0
 77
     1
 78
     8
170
     0
171
     2
172
     1
173
     0
174
     0
175
     0
176
     3
177
     3
178
     7
  0
DIMSTYLE
105
78A
100
AcDbSymbolTableRecord
100
AcDbDimStyleTableRecord
  2
CAD400-DIM6
 70
     0
  3

  4

  5

  6

  7

 40
5.000000
 41
2.000000
 42
1.855000
 43
0.000000
 44
1.800000
 45
0.000000
 46
0.000000
 47
0.000000
 48
0.000000
140
3.500000
141
0.000000
142
0.000000
143
25.400000
144
1.000000
145
0.000000
146
1.000000
147
0.090000
 71
     0
 72
     0
 73
     0
 74
     0
 75
     0
 76
     0
 77
     1
 78
     8
170
     0
171
     2
172
     1
173
     0
174
     0
175
     0
176
     3
177
     3
178
     7
  0
DIMSTYLE
105
78B
100
AcDbSymbolTableRecord
100
AcDbDimStyleTableRecord
  2
CAD400-DIM7
 70
     0
  3

  4

  5

  6

  7

 40
5.000000
 41
2.000000
 42
6.597000
 43
0.000000
 44
1.800000
 45
0.000000
 46
0.000000
 47
0.000000
 48
0.000000
140
3.500000
141
0.000000
142
0.000000
143
25.400000
144
1.000000
145
0.000000
146
1.000000
147
0.090000
 71
     0
 72
     0
 73
     0
 74
     0
 75
     0
 76
     0
 77
     1
 78
     8
170
     0
171
     2
172
     1
173
     0
174
     0
175
     0
176
     3
177
     3
178
     7
  0
DIMSTYLE
105
78C
100
AcDbSymbolTableRecord
100
AcDbDimStyleTableRecord
  2
CAD400-DIM8
 70
     0
  3
(<>)
  4

  5

  6

  7

 40
5.000000
 41
2.000000
 42
0.010000
 43
0.000000
 44
1.800000
 45
0.000000
 46
0.000000
 47
0.000000
 48
0.000000
140
3.500000
141
0.000000
142
0.000000
143
25.400000
144
1.000000
145
0.000000
146
1.000000
147
0.090000
 71
     0
 72
     0
 73
     0
 74
     0
 75
     0
 76
     0
 77
     1
 78
     8
170
     0
171
     2
172
     1
173
     0
174
     0
175
     0
176
     3
177
     3
178
     7
  0
DIMSTYLE
105
78D
100
AcDbSymbolTableRecord
100
AcDbDimStyleTableRecord
  2
CAD400-DIM9
 70
     0
  3

  4

  5

  6

  7

 40
5.000000
 41
2.000000
 42
9.241000
 43
0.000000
 44
1.800000
 45
0.000000
 46
0.000000
 47
0.000000
 48
0.000000
140
3.500000
141
0.000000
142
0.000000
143
25.400000
144
1.000000
145
0.000000
146
1.000000
147
0.090000
 71
     0
 72
     0
 73
     0
 74
     0
 75
     0
 76
     0
 77
     1
 78
     8
170
     0
171
     2
172
     1
173
     0
174
     0
175
     0
176
     3
177
     3
178
     7
  0
DIMSTYLE
105
78E
100
AcDbSymbolTableRecord
100
AcDbDimStyleTableRecord
  2
CAD400-DIM10
 70
     0
  3
%%C<>
  4

  5

  6

  7

 40
5.000000
 41
2.000000
 42
0.010000
 43
0.000000
 44
1.800000
 45
0.000000
 46
0.000000
 47
0.000000
 48
0.000000
140
3.500000
141
0.000000
142
0.000000
143
25.400000
144
1.000000
145
0.000000
146
1.000000
147
0.090000
 71
     0
 72
     0
 73
     0
 74
     0
 75
     0
 76
     0
 77
     1
 78
     8
170
     0
171
     2
172
     1
173
     0
174
     0
175
     0
176
     3
177
     3
178
     7
  0
ENDTAB
  0
TABLE
  2
VIEW
  5
78F
100
AcDbSymbolTable
 70
     0
  0
ENDTAB
  0
TABLE
  2
UCS
  5
790
100
AcDbSymbolTable
 70
     0
  0
ENDTAB
  0
TABLE
  2
APPID
  5
791
100
AcDbSymbolTable
 70
     1
  0
APPID
  5
792
100
AcDbSymbolTableRecord
100
AcDbRegAppTableRecord
  2
ACAD
 70
     0
  0
ENDTAB
  0
TABLE
  2
BLOCK_RECORD
  5
793
100
AcDbSymbolTable
 70
    88
  0
BLOCK_RECORD
  5
210
102
{ACAD_XDICTIONARY
360
211
102
}
100
AcDbSymbolTableRecord
100
AcDbBlockTableRecord
  2
*Model_Space
  0
BLOCK_RECORD
  5
794
100
AcDbSymbolTableRecord
100
AcDbBlockTableRecord
  2
*Paper_Space
  0
BLOCK_RECORD
  5
795
100
AcDbSymbolTableRecord
100
AcDbBlockTableRecord
  2
*Paper_Space0
  0
BLOCK_RECORD
  5
796
100
AcDbSymbolTableRecord
100
AcDbBlockTableRecord
  2
B
  0
BLOCK_RECORD
  5
797
100
AcDbSymbolTableRecord
100
AcDbBlockTableRecord
  2
B-2
  0
BLOCK_RECORD
  5
798
100
AcDbSymbolTableRecord
100
AcDbBlockTableRecord
  2
B-3
  0
BLOCK_RECORD
  5
799
100
AcDbSymbolTableRecord
100
AcDbBlockTableRecord
  2
B-4
  0
BLOCK_RECORD
  5
79A
100
AcDbSymbolTableRecord
100
AcDbBlockTableRecord
  2
B-5
  0
BLOCK_RECORD
  5
79B
100
AcDbSymbolTableRecord
100
AcDbBlockTableRecord
  2
B-6
  0
BLOCK_RECORD
  5
79C
100
AcDbSymbolTableRecord
100
AcDbBlockTableRecord
  2
B-7
  0
BLOCK_RECORD
  5
79D
100
AcDbSymbolTableRecord
100
AcDbBlockTableRecord
  2
B-8
  0
BLOCK_RECORD
  5
79E
100
AcDbSymbolTableRecord
100
AcDbBlockTableRecord
  2
B-9
  0
BLOCK_RECORD
  5
79F
100
AcDbSymbolTableRecord
100
AcDbBlockTableRecord
  2
*D0
  0
BLOCK_RECORD
  5
7A0
100
AcDbSymbolTableRecord
100
AcDbBlockTableRecord
  2
*D1
  0
BLOCK_RECORD
  5
7A1
100
AcDbSymbolTableRecord
100
AcDbBlockTableRecord
  2
*D2
  0
BLOCK_RECORD
  5
7A2
100
AcDbSymbolTableRecord
100
AcDbBlockTableRecord
  2
*D3
  0
BLOCK_RECORD
  5
7A3
100
AcDbSymbolTableRecord
100
AcDbBlockTableRecord
  2
*D4
  0
BLOCK_RECORD
  5
7A4
100
AcDbSymbolTableRecord
100
AcDbBlockTableRecord
  2
*D5
  0
BLOCK_RECORD
  5
7A5
100
AcDbSymbolTableRecord
100
AcDbBlockTableRecord
  2
*D6
  0
BLOCK_RECORD
  5
7A6
100
AcDbSymbolTableRecord
100
AcDbBlockTableRecord
  2
*D7
  0
BLOCK_RECORD
  5
7A7
100
AcDbSymbolTableRecord
100
AcDbBlockTableRecord
  2
*D8
  0
BLOCK_RECORD
  5
7A8
100
AcDbSymbolTableRecord
100
AcDbBlockTableRecord
  2
*D9
  0
BLOCK_RECORD
  5
7A9
100
AcDbSymbolTableRecord
100
AcDbBlockTableRecord
  2
*D10
  0
BLOCK_RECORD
  5
7AA
100
AcDbSymbolTableRecord
100
AcDbBlockTableRecord
  2
*D11
  0
BLOCK_RECORD
  5
7AB
100
AcDbSymbolTableRecord
100
AcDbBlockTableRecord
  2
*D12
  0
BLOCK_RECORD
  5
7AC
100
AcDbSymbolTableRecord
100
AcDbBlockTableRecord
  2
*D13
  0
BLOCK_RECORD
  5
7AD
100
AcDbSymbolTableRecord
100
AcDbBlockTableRecord
  2
*D14
  0
BLOCK_RECORD
  5
7AE
100
AcDbSymbolTableRecord
100
AcDbBlockTableRecord
  2
*D15
  0
BLOCK_RECORD
  5
7AF
100
AcDbSymbolTableRecord
100
AcDbBlockTableRecord
  2
*D16
  0
BLOCK_RECORD
  5
7B0
100
AcDbSymbolTableRecord
100
AcDbBlockTableRecord
  2
mass
  0
BLOCK_RECORD
  5
7B1
100
AcDbSymbolTableRecord
100
AcDbBlockTableRecord
  2
rahmen
  0
BLOCK_RECORD
  5
7B2
100
AcDbSymbolTableRecord
100
AcDbBlockTableRecord
  2
ZNr
  0
BLOCK_RECORD
  5
7B3
100
AcDbSymbolTableRecord
100
AcDbBlockTableRecord
  2
datum1
  0
BLOCK_RECORD
  5
7B4
100
AcDbSymbolTableRecord
100
AcDbBlockTableRecord
  2
datum2
  0
BLOCK_RECORD
  5
7B5
100
AcDbSymbolTableRecord
100
AcDbBlockTableRecord
  2
datum3
  0
BLOCK_RECORD
  5
7B6
100
AcDbSymbolTableRecord
100
AcDbBlockTableRecord
  2
datum4
  0
BLOCK_RECORD
  5
7B7
100
AcDbSymbolTableRecord
100
AcDbBlockTableRecord
  2
datum5
  0
BLOCK_RECORD
  5
7B8
100
AcDbSymbolTableRecord
100
AcDbBlockTableRecord
  2
datum6
  0
BLOCK_RECORD
  5
7B9
100
AcDbSymbolTableRecord
100
AcDbBlockTableRecord
  2
datum7
  0
BLOCK_RECORD
  5
7BA
100
AcDbSymbolTableRecord
100
AcDbBlockTableRecord
  2
index7
  0
BLOCK_RECORD
  5
7BB
100
AcDbSymbolTableRecord
100
AcDbBlockTableRecord
  2
index1
  0
BLOCK_RECORD
  5
7BC
100
AcDbSymbolTableRecord
100
AcDbBlockTableRecord
  2
name3
  0
BLOCK_RECORD
  5
7BD
100
AcDbSymbolTableRecord
100
AcDbBlockTableRecord
  2
name5
  0
BLOCK_RECORD
  5
7BE
100
AcDbSymbolTableRecord
100
AcDbBlockTableRecord
  2
name1
  0
BLOCK_RECORD
  5
7BF
100
AcDbSymbolTableRecord
100
AcDbBlockTableRecord
  2
name7
  0
BLOCK_RECORD
  5
7C0
100
AcDbSymbolTableRecord
100
AcDbBlockTableRecord
  2
nummer1
  0
BLOCK_RECORD
  5
7C1
100
AcDbSymbolTableRecord
100
AcDbBlockTableRecord
  2
nummer7
  0
BLOCK_RECORD
  5
7C2
100
AcDbSymbolTableRecord
100
AcDbBlockTableRecord
  2
name2
  0
BLOCK_RECORD
  5
7C3
100
AcDbSymbolTableRecord
100
AcDbBlockTableRecord
  2
name4
  0
BLOCK_RECORD
  5
7C4
100
AcDbSymbolTableRecord
100
AcDbBlockTableRecord
  2
name6
  0
BLOCK_RECORD
  5
7C5
100
AcDbSymbolTableRecord
100
AcDbBlockTableRecord
  2
nummer2
  0
BLOCK_RECORD
  5
7C6
100
AcDbSymbolTableRecord
100
AcDbBlockTableRecord
  2
nummer3
  0
BLOCK_RECORD
  5
7C7
100
AcDbSymbolTableRecord
100
AcDbBlockTableRecord
  2
nummer4
  0
BLOCK_RECORD
  5
7C8
100
AcDbSymbolTableRecord
100
AcDbBlockTableRecord
  2
nummer5
  0
BLOCK_RECORD
  5
7C9
100
AcDbSymbolTableRecord
100
AcDbBlockTableRecord
  2
nummer6
  0
BLOCK_RECORD
  5
7CA
100
AcDbSymbolTableRecord
100
AcDbBlockTableRecord
  2
index2
  0
BLOCK_RECORD
  5
7CB
100
AcDbSymbolTableRecord
100
AcDbBlockTableRecord
  2
index3
  0
BLOCK_RECORD
  5
7CC
100
AcDbSymbolTableRecord
100
AcDbBlockTableRecord
  2
index4
  0
BLOCK_RECORD
  5
7CD
100
AcDbSymbolTableRecord
100
AcDbBlockTableRecord
  2
index5
  0
BLOCK_RECORD
  5
7CE
100
AcDbSymbolTableRecord
100
AcDbBlockTableRecord
  2
index6
  0
BLOCK_RECORD
  5
7CF
100
AcDbSymbolTableRecord
100
AcDbBlockTableRecord
  2
index8
  0
BLOCK_RECORD
  5
7D0
100
AcDbSymbolTableRecord
100
AcDbBlockTableRecord
  2
index9
  0
BLOCK_RECORD
  5
7D1
100
AcDbSymbolTableRecord
100
AcDbBlockTableRecord
  2
datum8
  0
BLOCK_RECORD
  5
7D2
100
AcDbSymbolTableRecord
100
AcDbBlockTableRecord
  2
name8
  0
BLOCK_RECORD
  5
7D3
100
AcDbSymbolTableRecord
100
AcDbBlockTableRecord
  2
name9
  0
BLOCK_RECORD
  5
7D4
100
AcDbSymbolTableRecord
100
AcDbBlockTableRecord
  2
nummer8
  0
BLOCK_RECORD
  5
7D5
100
AcDbSymbolTableRecord
100
AcDbBlockTableRecord
  2
nummer9
  0
BLOCK_RECORD
  5
7D6
100
AcDbSymbolTableRecord
100
AcDbBlockTableRecord
  2
aend1
  0
BLOCK_RECORD
  5
7D7
100
AcDbSymbolTableRecord
100
AcDbBlockTableRecord
  2
aend2
  0
BLOCK_RECORD
  5
7D8
100
AcDbSymbolTableRecord
100
AcDbBlockTableRecord
  2
aend3
  0
BLOCK_RECORD
  5
7D9
100
AcDbSymbolTableRecord
100
AcDbBlockTableRecord
  2
aend4
  0
BLOCK_RECORD
  5
7DA
100
AcDbSymbolTableRecord
100
AcDbBlockTableRecord
  2
aend5
  0
BLOCK_RECORD
  5
7DB
100
AcDbSymbolTableRecord
100
AcDbBlockTableRecord
  2
aend6
  0
BLOCK_RECORD
  5
7DC
100
AcDbSymbolTableRecord
100
AcDbBlockTableRecord
  2
aend7
  0
BLOCK_RECORD
  5
7DD
100
AcDbSymbolTableRecord
100
AcDbBlockTableRecord
  2
aend8
  0
BLOCK_RECORD
  5
7DE
100
AcDbSymbolTableRecord
100
AcDbBlockTableRecord
  2
aend9
  0
BLOCK_RECORD
  5
7DF
100
AcDbSymbolTableRecord
100
AcDbBlockTableRecord
  2
datum9
  0
BLOCK_RECORD
  5
7E0
100
AcDbSymbolTableRecord
100
AcDbBlockTableRecord
  2
sk
  0
BLOCK_RECORD
  5
7E1
100
AcDbSymbolTableRecord
100
AcDbBlockTableRecord
  2
B-314
  0
BLOCK_RECORD
  5
7E2
100
AcDbSymbolTableRecord
100
AcDbBlockTableRecord
  2
Be1
  0
BLOCK_RECORD
  5
7E3
100
AcDbSymbolTableRecord
100
AcDbBlockTableRecord
  2
B-315
  0
BLOCK_RECORD
  5
7E4
100
AcDbSymbolTableRecord
100
AcDbBlockTableRecord
  2
B-316
  0
BLOCK_RECORD
  5
7E5
100
AcDbSymbolTableRecord
100
AcDbBlockTableRecord
  2
Be2
  0
BLOCK_RECORD
  5
7E6
100
AcDbSymbolTableRecord
100
AcDbBlockTableRecord
  2
Be3
  0
BLOCK_RECORD
  5
7E7
100
AcDbSymbolTableRecord
100
AcDbBlockTableRecord
  2
DatErst1
  0
BLOCK_RECORD
  5
7E8
100
AcDbSymbolTableRecord
100
AcDbBlockTableRecord
  2
DatErst2
  0
BLOCK_RECORD
  5
7E9
100
AcDbSymbolTableRecord
100
AcDbBlockTableRecord
  2
Erst2
  0
BLOCK_RECORD
  5
7EA
100
AcDbSymbolTableRecord
100
AcDbBlockTableRecord
  2
Erst1
  0
ENDTAB
  0
ENDSEC
  0
SECTION
  2
BLOCKS
  0
BLOCK
  5
212
100
AcDbEntity
  8
0
100
AcDbBlockBegin
  2
*Model_Space
 70
     0
 10
0.000000
 20
0.000000
 30
0.000000
  3
*Model_Space
  1

  0
ENDBLK
  5
213
100
AcDbEntity
  8
0
100
AcDbBlockEnd
  0
BLOCK
  5
214
100
AcDbEntity
 67
     1
  8
0
100
AcDbBlockBegin
  2
*Paper_Space
 70
     0
 10
0.000000
 20
0.000000
 30
0.000000
  3
*Paper_Space
  1

  0
ENDBLK
  5
215
100
AcDbEntity
 67
     1
  8
0
100
AcDbBlockEnd
  0
BLOCK
  5
216
100
AcDbEntity
 67
     1
  8
0
100
AcDbBlockBegin
  2
*Paper_Space0
 70
     0
 10
0.000000
 20
0.000000
 30
0.000000
  3
*Paper_Space0
  1

  0
ENDBLK
  5
217
100
AcDbEntity
 67
     1
  8
0
100
AcDbBlockEnd
  0
BLOCK
  5
218
100
AcDbEntity
  8
L
100
AcDbBlockBegin
  2
B
 70
    66
 10
0.000000
 20
0.000000
 30
0.000000
  0
LINE
  5
219
100
AcDbEntity
  8
L
  6
CONTINUOUS
 62
     6
100
AcDbLine
 10
-742.499960
 20
525.000000
 11
-723.749985
 21
525.000000
  0
LINE
  5
21A
100
AcDbEntity
  8
L
  6
CONTINUOUS
 62
     6
100
AcDbLine
 10
723.750015
 20
525.000000
 11
742.500015
 21
525.000000
  0
ENDBLK
  5
21C
100
AcDbEntity
  8
0
100
AcDbBlockEnd
  0
BLOCK
  5
21D
100
AcDbEntity
  8
L
100
AcDbBlockBegin
  2
B-2
 70
    66
 10
0.000000
 20
0.000000
 30
0.000000
  0
LINE
  5
21E
100
AcDbEntity
  8
L
  6
CONTINUOUS
 62
     2
100
AcDbLine
 10
-254.169430
 20
309.967360
 11
-254.169430
 21
303.467360
  0
LINE
  5
21F
100
AcDbEntity
  8
L
  6
CONTINUOUS
 62
     2
100
AcDbLine
 10
125.830570
 20
309.967360
 11
-254.169430
 21
309.967360
  0
LINE
  5
220
100
AcDbEntity
  8
L
  6
CONTINUOUS
 62
     2
100
AcDbLine
 10
125.830570
 20
309.967360
 11
125.830570
 21
303.467360
  0
LINE
  5
221
100
AcDbEntity
  8
L
  6
CONTINUOUS
 62
     2
100
AcDbLine
 10
-254.169430
 20
303.467360
 11
125.830570
 21
303.467360
  0
LINE
  5
222
100
AcDbEntity
  8
L
  6
DASHED
 62
     3
100
AcDbLine
 10
104.330570
 20
309.967335
 11
104.330570
 21
303.467335
  0
LINE
  5
223
100
AcDbEntity
  8
L
  6
DASHED
 62
     3
100
AcDbLine
 10
117.330570
 20
309.967335
 11
117.330570
 21
303.467335
  0
ENDBLK
  5
224
100
AcDbEntity
  8
0
100
AcDbBlockEnd
  0
BLOCK
  5
225
100
AcDbEntity
  8
L
100
AcDbBlockBegin
  2
B-3
 70
    66
 10
0.000000
 20
0.000000
 30
0.000000
  0
CIRCLE
  5
226
100
AcDbEntity
  8
L
  6
BORDER
 62
     4
100
AcDbCircle
 10
100.330565
 20
-171.480980
 40
7.450005
  0
LINE
  5
227
100
AcDbEntity
  8
L
  6
DIVIDE
 62
     4
100
AcDbLine
 10
100.330565
 20
-145.986535
 11
93.830565
 21
-142.233760
  0
LINE
  5
228
100
AcDbEntity
  8
L
  6
DIVIDE
 62
     4
100
AcDbLine
 10
93.830565
 20
-142.233760
 11
93.830565
 21
-134.728205
  0
LINE
  5
229
100
AcDbEntity
  8
L
  6
DIVIDE
 62
     4
100
AcDbLine
 10
93.830565
 20
-134.728205
 11
100.330565
 21
-130.975430
  0
LINE
  5
22A
100
AcDbEntity
  8
L
  6
DIVIDE
 62
     4
100
AcDbLine
 10
100.330565
 20
-130.975430
 11
106.830565
 21
-134.728205
  0
LINE
  5
22B
100
AcDbEntity
  8
L
  6
DIVIDE
 62
     4
100
AcDbLine
 10
106.830565
 20
-134.728205
 11
106.830565
 21
-142.233760
  0
LINE
  5
22C
100
AcDbEntity
  8
L
  6
DIVIDE
 62
     4
100
AcDbLine
 10
106.830565
 20
-142.233760
 11
100.330565
 21
-145.986535
  0
CIRCLE
  5
22D
100
AcDbEntity
  8
L
  6
BORDER
 62
     4
100
AcDbCircle
 10
100.330565
 20
-138.480980
 40
7.450005
  0
LINE
  5
22E
100
AcDbEntity
  8
L
  6
DIVIDE
 62
     4
100
AcDbLine
 10
100.330565
 20
-178.986535
 11
93.830565
 21
-175.233760
  0
LINE
  5
22F
100
AcDbEntity
  8
L
  6
DIVIDE
 62
     4
100
AcDbLine
 10
93.830565
 20
-175.233760
 11
93.830565
 21
-167.728205
  0
LINE
  5
230
100
AcDbEntity
  8
L
  6
DIVIDE
 62
     4
100
AcDbLine
 10
93.830565
 20
-167.728205
 11
100.330565
 21
-163.975430
  0
LINE
  5
231
100
AcDbEntity
  8
L
  6
DIVIDE
 62
     4
100
AcDbLine
 10
100.330565
 20
-163.975430
 11
106.830565
 21
-167.728205
  0
LINE
  5
232
100
AcDbEntity
  8
L
  6
DIVIDE
 62
     4
100
AcDbLine
 10
106.830565
 20
-167.728205
 11
106.830565
 21
-175.233760
  0
LINE
  5
233
100
AcDbEntity
  8
L
  6
DIVIDE
 62
     4
100
AcDbLine
 10
106.830565
 20
-175.233760
 11
100.330565
 21
-178.986535
  0
ENDBLK
  5
234
100
AcDbEntity
  8
0
100
AcDbBlockEnd
  0
BLOCK
  5
235
100
AcDbEntity
  8
L
100
AcDbBlockBegin
  2
B-4
 70
    66
 10
0.000000
 20
0.000000
 30
0.000000
  0
LINE
  5
236
100
AcDbEntity
  8
L
  6
DIVIDE
 62
     4
100
AcDbLine
 10
92.880570
 20
303.467360
 11
92.880570
 21
301.867360
  0
LINE
  5
237
100
AcDbEntity
  8
L
  6
DIVIDE
 62
     4
100
AcDbLine
 10
92.880570
 20
301.867360
 11
93.830570
 21
301.867360
  0
LINE
  5
238
100
AcDbEntity
  8
L
  6
DIVIDE
 62
     4
100
AcDbLine
 10
93.830565
 20
301.867360
 11
93.830565
 21
295.367360
  0
LINE
  5
239
100
AcDbEntity
  8
L
  6
DIVIDE
 62
     4
100
AcDbLine
 10
93.830565
 20
295.367360
 11
96.330565
 21
295.367360
  0
LINE
  5
23A
100
AcDbEntity
  8
L
  6
DIVIDE
 62
     4
100
AcDbLine
 10
96.330560
 20
292.734155
 11
96.330565
 21
295.367360
  0
LINE
  5
23B
100
AcDbEntity
  8
L
  6
DIVIDE
 62
     4
100
AcDbLine
 10
97.097355
 20
291.967360
 11
96.330560
 21
292.734155
  0
LINE
  5
23C
100
AcDbEntity
  8
L
  6
DIVIDE
 62
     4
100
AcDbLine
 10
103.563770
 20
291.967360
 11
97.097355
 21
291.967360
  0
LINE
  5
23D
100
AcDbEntity
  8
L
  6
DIVIDE
 62
     4
100
AcDbLine
 10
104.330565
 20
292.734155
 11
103.563770
 21
291.967360
  0
LINE
  5
23E
100
AcDbEntity
  8
L
  6
DIVIDE
 62
     4
100
AcDbLine
 10
104.330570
 20
295.367360
 11
104.330565
 21
292.734155
  0
LINE
  5
23F
100
AcDbEntity
  8
L
  6
DIVIDE
 62
     4
100
AcDbLine
 10
104.330570
 20
295.367360
 11
106.830565
 21
295.367360
  0
LINE
  5
240
100
AcDbEntity
  8
L
  6
DIVIDE
 62
     4
100
AcDbLine
 10
106.830565
 20
301.867360
 11
106.830565
 21
295.367360
  0
LINE
  5
241
100
AcDbEntity
  8
L
  6
DIVIDE
 62
     4
100
AcDbLine
 10
106.830570
 20
301.867360
 11
107.780570
 21
301.867360
  0
LINE
  5
242
100
AcDbEntity
  8
L
  6
DIVIDE
 62
     4
100
AcDbLine
 10
107.780570
 20
301.867360
 11
107.780570
 21
303.467360
  0
LINE
  5
243
100
AcDbEntity
  8
L
  6
BORDER
 62
     3
100
AcDbLine
 10
100.330565
 20
317.467360
 11
100.330565
 21
284.663510
  0
ENDBLK
  5
244
100
AcDbEntity
  8
0
100
AcDbBlockEnd
  0
BLOCK
  5
245
100
AcDbEntity
  8
SCHRAFF
100
AcDbBlockBegin
  2
B-5
 70
    66
 10
0.000000
 20
0.000000
 30
0.000000
  0
HATCH
  5
246
100
AcDbEntity
  8
SCHRAFF
  6
CONTINUOUS
 62
     4
100
AcDbHatch
 10
0.000000
 20
0.000000
 30
0.000000
210
0.000000
220
0.000000
230
1.000000
  2
_U
 70
     0
 71
     1
 91
     1
 92
    18
 72
     1
 73
     0
 93
    49
 10
-249.837750
 20
279.613600
 42
0.028353
 10
-251.824675
 20
279.336980
 42
0.014235
 10
-252.706325
 20
279.136595
 42
0.019426
 10
-253.659380
 20
278.851360
 42
0.012834
 10
-254.209165
 20
278.647350
 42
0.016001
 10
-254.753370
 20
278.408890
 42
0.014862
 10
-255.192395
 20
278.183280
 42
0.018195
 10
-255.603010
 20
277.936690
 42
0.016488
 10
-255.919130
 20
277.715665
 42
0.019580
 10
-256.202320
 20
277.485580
 42
0.023380
 10
-256.478735
 20
277.218510
 42
0.027940
 10
-256.706495
 20
276.948090
 42
0.033147
 10
-256.906740
 20
276.641010
 42
0.038563
 10
-257.047975
 20
276.336655
 42
0.043289
 10
-257.139285
 20
276.007845
 42
0.046119
 10
-257.169430
 20
275.681735
 42
0.104615
 10
-257.014670
 20
274.950170
 42
0.078108
 10
-256.535105
 20
274.206640
 42
0.043040
 10
-256.049935
 20
273.749170
 42
0.030951
 10
-255.434910
 20
273.321035
 42
0.040379
 10
-254.305375
 20
272.753620
 42
0.024986
 10
-253.121335
 20
272.341635
 42
0.045091
 10
-250.356830
 20
271.796290
 42
0.026167
 10
-248.169430
 20
271.681735
 42
0.020412
 10
-246.501110
 20
271.749870
 42
0.028353
 10
-244.514185
 20
272.026490
 42
0.014235
 10
-243.632535
 20
272.226875
 42
0.019426
 10
-242.679480
 20
272.512110
 42
0.012834
 10
-242.129695
 20
272.716120
 42
0.016001
 10
-241.585490
 20
272.954580
 42
0.014862
 10
-241.146465
 20
273.180190
 42
0.018195
 10
-240.735850
 20
273.426780
 42
0.016488
 10
-240.419730
 20
273.647805
 42
0.019580
 10
-240.136540
 20
273.877890
 42
0.023380
 10
-239.860125
 20
274.144960
 42
0.027940
 10
-239.632365
 20
274.415380
 42
0.033147
 10
-239.432120
 20
274.722460
 42
0.038563
 10
-239.290885
 20
275.026815
 42
0.043289
 10
-239.199575
 20
275.355625
 42
0.046119
 10
-239.169430
 20
275.681735
 42
0.104615
 10
-239.324190
 20
276.413300
 42
0.078108
 10
-239.803755
 20
277.156830
 42
0.043040
 10
-240.288925
 20
277.614300
 42
0.030951
 10
-240.903950
 20
278.042435
 42
0.040379
 10
-242.033485
 20
278.609850
 42
0.024986
 10
-243.217525
 20
279.021835
 42
0.045091
 10
-245.982030
 20
279.567180
 42
0.026167
 10
-248.169430
 20
279.681735
 42
0.020412
 10
-249.837750
 20
279.613600
 42
0.000000
 97
     0
 75
     0
 76
     0
 52
0.000000
 41
1.000000
 77
     0
 78
     1
 53
44.999999
 43
-0.000000
 44
0.000000
 45
-2.121320
 46
2.121320
 79
     0
 98
     0
  0
HATCH
  5
247
100
AcDbEntity
  8
SCHRAFF
  6
CONTINUOUS
 62
     4
100
AcDbHatch
 10
0.000000
 20
0.000000
 30
0.000000
210
0.000000
220
0.000000
230
1.000000
  2
_U
 70
     0
 71
     1
 91
     1
 92
    18
 72
     1
 73
     0
 93
    49
 10
118.998925
 20
279.613600
 42
-0.028353
 10
120.985850
 20
279.336980
 42
-0.014235
 10
121.867500
 20
279.136595
 42
-0.019426
 10
122.820555
 20
278.851360
 42
-0.012834
 10
123.370340
 20
278.647350
 42
-0.016001
 10
123.914545
 20
278.408890
 42
-0.014862
 10
124.353570
 20
278.183280
 42
-0.018195
 10
124.764185
 20
277.936690
 42
-0.016488
 10
125.080305
 20
277.715665
 42
-0.019580
 10
125.363495
 20
277.485580
 42
-0.023380
 10
125.639910
 20
277.218510
 42
-0.027940
 10
125.867670
 20
276.948090
 42
-0.033147
 10
126.067915
 20
276.641010
 42
-0.038563
 10
126.209150
 20
276.336655
 42
-0.043289
 10
126.300460
 20
276.007845
 42
-0.046119
 10
126.330605
 20
275.681735
 42
-0.104615
 10
126.175845
 20
274.950170
 42
-0.078108
 10
125.696280
 20
274.206640
 42
-0.043040
 10
125.211110
 20
273.749170
 42
-0.030951
 10
124.596085
 20
273.321035
 42
-0.040379
 10
123.466550
 20
272.753620
 42
-0.024986
 10
122.282510
 20
272.341635
 42
-0.045091
 10
119.518005
 20
271.796290
 42
-0.026167
 10
117.330605
 20
271.681735
 42
-0.020412
 10
115.662285
 20
271.749870
 42
-0.028353
 10
113.675360
 20
272.026490
 42
-0.014235
 10
112.793710
 20
272.226875
 42
-0.019426
 10
111.840655
 20
272.512110
 42
-0.012834
 10
111.290870
 20
272.716120
 42
-0.016001
 10
110.746665
 20
272.954580
 42
-0.014862
 10
110.307640
 20
273.180190
 42
-0.018195
 10
109.897025
 20
273.426780
 42
-0.016488
 10
109.580905
 20
273.647805
 42
-0.019580
 10
109.297715
 20
273.877890
 42
-0.023380
 10
109.021300
 20
274.144960
 42
-0.027940
 10
108.793540
 20
274.415380
 42
-0.033147
 10
108.593295
 20
274.722460
 42
-0.038563
 10
108.452060
 20
275.026815
 42
-0.043289
 10
108.360750
 20
275.355625
 42
-0.046119
 10
108.330605
 20
275.681735
 42
-0.104615
 10
108.485365
 20
276.413300
 42
-0.078108
 10
108.964930
 20
277.156830
 42
-0.043040
 10
109.450100
 20
277.614300
 42
-0.030951
 10
110.065125
 20
278.042435
 42
-0.040379
 10
111.194660
 20
278.609850
 42
-0.024986
 10
112.378700
 20
279.021835
 42
-0.045091
 10
115.143205
 20
279.567180
 42
-0.026167
 10
117.330605
 20
279.681735
 42
-0.020412
 10
118.998925
 20
279.613600
 42
0.000000
 97
     0
 75
     0
 76
     0
 52
0.000000
 41
1.000000
 77
     0
 78
     1
 53
44.999999
 43
-0.000000
 44
0.000000
 45
-2.121320
 46
2.121320
 79
     0
 98
     0
  0
ARC
  5
248
100
AcDbEntity
  8
L
  6
DIVIDE
 62
     4
100
AcDbCircle
 10
-240.975902
 20
275.681735
 40
1.806472
100
AcDbArc
 50
0.000000
 51
23.889178
  0
ARC
  5
249
100
AcDbEntity
  8
L
  6
DIVIDE
 62
     4
100
AcDbCircle
 10
-241.929270
 20
275.259477
 40
2.849169
100
AcDbArc
 50
23.889148
 51
41.753862
  0
ARC
  5
24A
100
AcDbEntity
  8
L
  6
DIVIDE
 62
     4
100
AcDbCircle
 10
-242.698661
 20
274.572677
 40
3.880502
100
AcDbArc
 50
41.753863
 51
51.611859
  0
ARC
  5
24B
100
AcDbEntity
  8
L
  6
DIVIDE
 62
     4
100
AcDbCircle
 10
-244.051277
 20
272.865374
 40
6.058682
100
AcDbArc
 50
51.611862
 51
58.703034
  0
ARC
  5
24C
100
AcDbEntity
  8
L
  6
DIVIDE
 62
     4
100
AcDbCircle
 10
-244.976077
 20
271.344164
 40
7.838944
100
AcDbArc
 50
58.703030
 51
67.952123
  0
ARC
  5
24D
100
AcDbEntity
  8
L
  6
DIVIDE
 62
     4
100
AcDbCircle
 10
-246.745146
 20
266.976074
 40
12.551672
100
AcDbArc
 50
67.952128
 51
73.677242
  0
ARC
  5
24E
100
AcDbEntity
  8
L
  6
DIVIDE
 62
     4
100
AcDbCircle
 10
-247.617230
 20
263.998170
 40
15.654646
100
AcDbArc
 50
73.677243
 51
84.004254
  0
ARC
  5
24F
100
AcDbEntity
  8
L
  6
DIVIDE
 62
     4
100
AcDbCircle
 10
-248.169430
 20
258.740577
 40
20.941158
100
AcDbArc
 50
84.004256
 51
90.000000
  0
ARC
  5
250
100
AcDbEntity
  8
L
  6
DIVIDE
 62
     4
100
AcDbCircle
 10
-248.169430
 20
259.223491
 40
20.458246
100
AcDbArc
 50
90.000000
 51
94.677525
  0
ARC
  5
251
100
AcDbEntity
  8
L
  6
DIVIDE
 62
     4
100
AcDbCircle
 10
-248.394141
 20
261.969895
 40
17.702661
100
AcDbArc
 50
94.677526
 51
101.173835
  0
ARC
  5
252
100
AcDbEntity
  8
L
  6
DIVIDE
 62
     4
100
AcDbCircle
 10
-248.746986
 20
263.756174
 40
15.881868
100
AcDbArc
 50
101.173835
 51
104.436055
  0
ARC
  5
253
100
AcDbEntity
  8
L
  6
DIVIDE
 62
     4
100
AcDbCircle
 10
-249.513362
 20
266.733232
 40
12.807751
100
AcDbArc
 50
104.436055
 51
108.887539
  0
ARC
  5
254
100
AcDbEntity
  8
L
  6
DIVIDE
 62
     4
100
AcDbCircle
 10
-249.960981
 20
268.041549
 40
11.424977
100
AcDbArc
 50
108.887539
 51
111.828713
  0
ARC
  5
255
100
AcDbEntity
  8
L
  6
DIVIDE
 62
     4
100
AcDbCircle
 10
-250.756580
 20
270.027801
 40
9.285310
100
AcDbArc
 50
111.828712
 51
115.495632
  0
ARC
  5
256
100
AcDbEntity
  8
L
  6
DIVIDE
 62
     4
100
AcDbCircle
 10
-251.178487
 20
270.912521
 40
8.305142
100
AcDbArc
 50
115.495634
 51
118.901412
  0
ARC
  5
257
100
AcDbEntity
  8
L
  6
DIVIDE
 62
     4
100
AcDbCircle
 10
-252.010754
 20
272.420084
 40
6.583103
100
AcDbArc
 50
118.901412
 51
123.071020
  0
ARC
  5
258
100
AcDbEntity
  8
L
  6
DIVIDE
 62
     4
100
AcDbCircle
 10
-252.410794
 20
273.034422
 40
5.849996
100
AcDbArc
 50
123.071016
 51
126.849553
  0
ARC
  5
259
100
AcDbEntity
  8
L
  6
DIVIDE
 62
     4
100
AcDbCircle
 10
-253.124047
 20
273.986130
 40
4.660677
100
AcDbArc
 50
126.849560
 51
131.336309
  0
ARC
  5
25A
100
AcDbEntity
  8
L
  6
DIVIDE
 62
     4
100
AcDbCircle
 10
-253.486315
 20
274.397965
 40
4.112183
100
AcDbArc
 50
131.336310
 51
136.693599
  0
ARC
  5
25B
100
AcDbEntity
  8
L
  6
DIVIDE
 62
     4
100
AcDbCircle
 10
-254.174818
 20
275.046923
 40
3.166042
100
AcDbArc
 50
136.693602
 51
143.095219
  0
ARC
  5
25C
100
AcDbEntity
  8
L
  6
DIVIDE
 62
     4
100
AcDbCircle
 10
-254.493124
 20
275.285955
 40
2.767981
100
AcDbArc
 50
143.095215
 51
150.689223
  0
ARC
  5
25D
100
AcDbEntity
  8
L
  6
DIVIDE
 62
     4
100
AcDbCircle
 10
-255.007179
 20
275.574556
 40
2.178450
100
AcDbArc
 50
150.689217
 51
159.522747
  0
ARC
  5
25E
100
AcDbEntity
  8
L
  6
DIVIDE
 62
     4
100
AcDbCircle
 10
-255.198272
 20
275.645916
 40
1.974468
100
AcDbArc
 50
159.522749
 51
169.437707
  0
ARC
  5
25F
100
AcDbEntity
  8
L
  6
DIVIDE
 62
     4
100
AcDbCircle
 10
-255.390368
 20
275.681735
 40
1.779062
100
AcDbArc
 50
169.437702
 51
180.000000
  0
ARC
  5
260
100
AcDbEntity
  8
L
  6
DIVIDE
 62
     4
100
AcDbCircle
 10
-255.362958
 20
275.681735
 40
1.806472
100
AcDbArc
 50
180.000000
 51
203.889178
  0
ARC
  5
261
100
AcDbEntity
  8
L
  6
DIVIDE
 62
     4
100
AcDbCircle
 10
-254.409590
 20
276.103993
 40
2.849169
100
AcDbArc
 50
203.889148
 51
221.753862
  0
ARC
  5
262
100
AcDbEntity
  8
L
  6
DIVIDE
 62
     4
100
AcDbCircle
 10
-253.640199
 20
276.790793
 40
3.880502
100
AcDbArc
 50
221.753863
 51
231.611859
  0
ARC
  5
263
100
AcDbEntity
  8
L
  6
DIVIDE
 62
     4
100
AcDbCircle
 10
-252.287583
 20
278.498096
 40
6.058682
100
AcDbArc
 50
231.611862
 51
238.703034
  0
ARC
  5
264
100
AcDbEntity
  8
L
  6
DIVIDE
 62
     4
100
AcDbCircle
 10
-251.362783
 20
280.019306
 40
7.838944
100
AcDbArc
 50
238.703030
 51
247.952123
  0
ARC
  5
265
100
AcDbEntity
  8
L
  6
DIVIDE
 62
     4
100
AcDbCircle
 10
-249.593714
 20
284.387396
 40
12.551672
100
AcDbArc
 50
247.952128
 51
253.677242
  0
ARC
  5
266
100
AcDbEntity
  8
L
  6
DIVIDE
 62
     4
100
AcDbCircle
 10
-248.721630
 20
287.365300
 40
15.654646
100
AcDbArc
 50
253.677243
 51
264.004254
  0
ARC
  5
267
100
AcDbEntity
  8
L
  6
DIVIDE
 62
     4
100
AcDbCircle
 10
-248.169430
 20
292.622893
 40
20.941158
100
AcDbArc
 50
264.004256
 51
270.000000
  0
ARC
  5
268
100
AcDbEntity
  8
L
  6
DIVIDE
 62
     4
100
AcDbCircle
 10
-248.169430
 20
292.139979
 40
20.458246
100
AcDbArc
 50
270.000000
 51
274.677525
  0
ARC
  5
269
100
AcDbEntity
  8
L
  6
DIVIDE
 62
     4
100
AcDbCircle
 10
-247.944719
 20
289.393575
 40
17.702661
100
AcDbArc
 50
274.677526
 51
281.173835
  0
ARC
  5
26A
100
AcDbEntity
  8
L
  6
DIVIDE
 62
     4
100
AcDbCircle
 10
-247.591874
 20
287.607296
 40
15.881868
100
AcDbArc
 50
281.173835
 51
284.436055
  0
ARC
  5
26B
100
AcDbEntity
  8
L
  6
DIVIDE
 62
     4
100
AcDbCircle
 10
-246.825498
 20
284.630238
 40
12.807751
100
AcDbArc
 50
284.436055
 51
288.887539
  0
ARC
  5
26C
100
AcDbEntity
  8
L
  6
DIVIDE
 62
     4
100
AcDbCircle
 10
-246.377879
 20
283.321921
 40
11.424977
100
AcDbArc
 50
288.887539
 51
291.828713
  0
ARC
  5
26D
100
AcDbEntity
  8
L
  6
DIVIDE
 62
     4
100
AcDbCircle
 10
-245.582280
 20
281.335669
 40
9.285310
100
AcDbArc
 50
291.828712
 51
295.495632
  0
ARC
  5
26E
100
AcDbEntity
  8
L
  6
DIVIDE
 62
     4
100
AcDbCircle
 10
-245.160373
 20
280.450949
 40
8.305142
100
AcDbArc
 50
295.495634
 51
298.901412
  0
ARC
  5
26F
100
AcDbEntity
  8
L
  6
DIVIDE
 62
     4
100
AcDbCircle
 10
-244.328106
 20
278.943386
 40
6.583103
100
AcDbArc
 50
298.901412
 51
303.071020
  0
ARC
  5
270
100
AcDbEntity
  8
L
  6
DIVIDE
 62
     4
100
AcDbCircle
 10
-243.928066
 20
278.329048
 40
5.849996
100
AcDbArc
 50
303.071016
 51
306.849553
  0
ARC
  5
271
100
AcDbEntity
  8
L
  6
DIVIDE
 62
     4
100
AcDbCircle
 10
-243.214813
 20
277.377340
 40
4.660677
100
AcDbArc
 50
306.849560
 51
311.336309
  0
ARC
  5
272
100
AcDbEntity
  8
L
  6
DIVIDE
 62
     4
100
AcDbCircle
 10
-242.852545
 20
276.965505
 40
4.112183
100
AcDbArc
 50
311.336310
 51
316.693599
  0
ARC
  5
273
100
AcDbEntity
  8
L
  6
DIVIDE
 62
     4
100
AcDbCircle
 10
-242.164042
 20
276.316547
 40
3.166042
100
AcDbArc
 50
316.693602
 51
323.095219
  0
ARC
  5
274
100
AcDbEntity
  8
L
  6
DIVIDE
 62
     4
100
AcDbCircle
 10
-241.845736
 20
276.077515
 40
2.767981
100
AcDbArc
 50
323.095215
 51
330.689223
  0
ARC
  5
275
100
AcDbEntity
  8
L
  6
DIVIDE
 62
     4
100
AcDbCircle
 10
-241.331681
 20
275.788914
 40
2.178450
100
AcDbArc
 50
330.689217
 51
339.522747
  0
ARC
  5
276
100
AcDbEntity
  8
L
  6
DIVIDE
 62
     4
100
AcDbCircle
 10
-241.140588
 20
275.717554
 40
1.974468
100
AcDbArc
 50
339.522749
 51
349.437707
  0
ARC
  5
277
100
AcDbEntity
  8
L
  6
DIVIDE
 62
     4
100
AcDbCircle
 10
-240.948492
 20
275.681735
 40
1.779062
100
AcDbArc
 50
349.437702
 51
0.000000
  0
ARC
  5
278
100
AcDbEntity
  8
L
  6
DIVIDE
 62
     4
100
AcDbCircle
 10
-237.362938
 20
275.681735
 40
1.806472
100
AcDbArc
 50
180.000000
 51
203.889178
  0
ARC
  5
279
100
AcDbEntity
  8
L
  6
DIVIDE
 62
     4
100
AcDbCircle
 10
-236.409570
 20
276.103993
 40
2.849169
100
AcDbArc
 50
203.889148
 51
221.753862
  0
ARC
  5
27A
100
AcDbEntity
  8
L
  6
DIVIDE
 62
     4
100
AcDbCircle
 10
-235.640179
 20
276.790793
 40
3.880502
100
AcDbArc
 50
221.753863
 51
231.611859
  0
ARC
  5
27B
100
AcDbEntity
  8
L
  6
DIVIDE
 62
     4
100
AcDbCircle
 10
-234.287563
 20
278.498096
 40
6.058682
100
AcDbArc
 50
231.611862
 51
238.703034
  0
ARC
  5
27C
100
AcDbEntity
  8
L
  6
DIVIDE
 62
     4
100
AcDbCircle
 10
-233.362763
 20
280.019306
 40
7.838944
100
AcDbArc
 50
238.703030
 51
247.952123
  0
ARC
  5
27D
100
AcDbEntity
  8
L
  6
DIVIDE
 62
     4
100
AcDbCircle
 10
-231.593694
 20
284.387396
 40
12.551672
100
AcDbArc
 50
247.952128
 51
253.677242
  0
ARC
  5
27E
100
AcDbEntity
  8
L
  6
DIVIDE
 62
     4
100
AcDbCircle
 10
-230.721610
 20
287.365300
 40
15.654646
100
AcDbArc
 50
253.677243
 51
264.004254
  0
ARC
  5
27F
100
AcDbEntity
  8
L
  6
DIVIDE
 62
     4
100
AcDbCircle
 10
-230.169410
 20
292.622893
 40
20.941158
100
AcDbArc
 50
264.004256
 51
270.000000
  0
ARC
  5
280
100
AcDbEntity
  8
L
  6
DIVIDE
 62
     4
100
AcDbCircle
 10
-230.169410
 20
292.139979
 40
20.458246
100
AcDbArc
 50
270.000000
 51
274.677525
  0
ARC
  5
281
100
AcDbEntity
  8
L
  6
DIVIDE
 62
     4
100
AcDbCircle
 10
-229.944699
 20
289.393575
 40
17.702661
100
AcDbArc
 50
274.677526
 51
281.173835
  0
ARC
  5
282
100
AcDbEntity
  8
L
  6
DIVIDE
 62
     4
100
AcDbCircle
 10
-229.591854
 20
287.607296
 40
15.881868
100
AcDbArc
 50
281.173835
 51
284.436055
  0
ARC
  5
283
100
AcDbEntity
  8
L
  6
DIVIDE
 62
     4
100
AcDbCircle
 10
-228.825478
 20
284.630238
 40
12.807751
100
AcDbArc
 50
284.436055
 51
288.887539
  0
ARC
  5
284
100
AcDbEntity
  8
L
  6
DIVIDE
 62
     4
100
AcDbCircle
 10
-228.377859
 20
283.321921
 40
11.424977
100
AcDbArc
 50
288.887539
 51
291.828713
  0
ARC
  5
285
100
AcDbEntity
  8
L
  6
DIVIDE
 62
     4
100
AcDbCircle
 10
-227.582260
 20
281.335669
 40
9.285310
100
AcDbArc
 50
291.828712
 51
295.495632
  0
ARC
  5
286
100
AcDbEntity
  8
L
  6
DIVIDE
 62
     4
100
AcDbCircle
 10
-227.160353
 20
280.450949
 40
8.305142
100
AcDbArc
 50
295.495634
 51
298.901412
  0
ARC
  5
287
100
AcDbEntity
  8
L
  6
DIVIDE
 62
     4
100
AcDbCircle
 10
-226.328086
 20
278.943386
 40
6.583103
100
AcDbArc
 50
298.901412
 51
303.071020
  0
ARC
  5
288
100
AcDbEntity
  8
L
  6
DIVIDE
 62
     4
100
AcDbCircle
 10
-225.928046
 20
278.329048
 40
5.849996
100
AcDbArc
 50
303.071016
 51
306.849553
  0
ARC
  5
289
100
AcDbEntity
  8
L
  6
DIVIDE
 62
     4
100
AcDbCircle
 10
-225.214793
 20
277.377340
 40
4.660677
100
AcDbArc
 50
306.849560
 51
311.336309
  0
ARC
  5
28A
100
AcDbEntity
  8
L
  6
DIVIDE
 62
     4
100
AcDbCircle
 10
-224.852525
 20
276.965505
 40
4.112183
100
AcDbArc
 50
311.336310
 51
316.693599
  0
ARC
  5
28B
100
AcDbEntity
  8
L
  6
DIVIDE
 62
     4
100
AcDbCircle
 10
-224.164022
 20
276.316547
 40
3.166042
100
AcDbArc
 50
316.693602
 51
323.095219
  0
ARC
  5
28C
100
AcDbEntity
  8
L
  6
DIVIDE
 62
     4
100
AcDbCircle
 10
-223.845716
 20
276.077515
 40
2.767981
100
AcDbArc
 50
323.095215
 51
330.689223
  0
ARC
  5
28D
100
AcDbEntity
  8
L
  6
DIVIDE
 62
     4
100
AcDbCircle
 10
-223.331661
 20
275.788914
 40
2.178450
100
AcDbArc
 50
330.689217
 51
339.522747
  0
ARC
  5
28E
100
AcDbEntity
  8
L
  6
DIVIDE
 62
     4
100
AcDbCircle
 10
-223.140568
 20
275.717554
 40
1.974468
100
AcDbArc
 50
339.522749
 51
349.437707
  0
ARC
  5
28F
100
AcDbEntity
  8
L
  6
DIVIDE
 62
     4
100
AcDbCircle
 10
-222.948472
 20
275.681735
 40
1.779062
100
AcDbArc
 50
349.437702
 51
0.000000
  0
LINE
  5
290
100
AcDbEntity
  8
L
  6
DIVIDE
 62
     4
100
AcDbLine
 10
-257.169430
 20
303.467360
 11
-257.169430
 21
275.681735
  0
LINE
  5
291
100
AcDbEntity
  8
L
  6
DIVIDE
 62
     4
100
AcDbLine
 10
-254.169430
 20
303.467360
 11
-257.169430
 21
303.467360
  0
LINE
  5
292
100
AcDbEntity
  8
L
  6
DIVIDE
 62
     4
100
AcDbLine
 10
-221.169410
 20
275.681735
 11
-221.169430
 21
303.467360
  0
ARC
  5
293
100
AcDbEntity
  8
L
  6
DIVIDE
 62
     4
100
AcDbCircle
 10
110.137077
 20
275.681735
 40
1.806472
100
AcDbArc
 50
156.110822
 51
180.000000
  0
ARC
  5
294
100
AcDbEntity
  8
L
  6
DIVIDE
 62
     4
100
AcDbCircle
 10
111.090445
 20
275.259477
 40
2.849169
100
AcDbArc
 50
138.246138
 51
156.110852
  0
ARC
  5
295
100
AcDbEntity
  8
L
  6
DIVIDE
 62
     4
100
AcDbCircle
 10
111.859836
 20
274.572677
 40
3.880502
100
AcDbArc
 50
128.388141
 51
138.246137
  0
ARC
  5
296
100
AcDbEntity
  8
L
  6
DIVIDE
 62
     4
100
AcDbCircle
 10
113.212452
 20
272.865374
 40
6.058682
100
AcDbArc
 50
121.296966
 51
128.388138
  0
ARC
  5
297
100
AcDbEntity
  8
L
  6
DIVIDE
 62
     4
100
AcDbCircle
 10
114.137252
 20
271.344164
 40
7.838944
100
AcDbArc
 50
112.047877
 51
121.296970
  0
ARC
  5
298
100
AcDbEntity
  8
L
  6
DIVIDE
 62
     4
100
AcDbCircle
 10
115.906321
 20
266.976074
 40
12.551672
100
AcDbArc
 50
106.322758
 51
112.047872
  0
ARC
  5
299
100
AcDbEntity
  8
L
  6
DIVIDE
 62
     4
100
AcDbCircle
 10
116.778405
 20
263.998170
 40
15.654646
100
AcDbArc
 50
95.995746
 51
106.322757
  0
ARC
  5
29A
100
AcDbEntity
  8
L
  6
DIVIDE
 62
     4
100
AcDbCircle
 10
117.330605
 20
258.740577
 40
20.941158
100
AcDbArc
 50
90.000000
 51
95.995744
  0
ARC
  5
29B
100
AcDbEntity
  8
L
  6
DIVIDE
 62
     4
100
AcDbCircle
 10
117.330605
 20
259.223491
 40
20.458246
100
AcDbArc
 50
85.322475
 51
90.000000
  0
ARC
  5
29C
100
AcDbEntity
  8
L
  6
DIVIDE
 62
     4
100
AcDbCircle
 10
117.555316
 20
261.969895
 40
17.702661
100
AcDbArc
 50
78.826165
 51
85.322474
  0
ARC
  5
29D
100
AcDbEntity
  8
L
  6
DIVIDE
 62
     4
100
AcDbCircle
 10
117.908161
 20
263.756174
 40
15.881868
100
AcDbArc
 50
75.563945
 51
78.826165
  0
ARC
  5
29E
100
AcDbEntity
  8
L
  6
DIVIDE
 62
     4
100
AcDbCircle
 10
118.674537
 20
266.733232
 40
12.807751
100
AcDbArc
 50
71.112461
 51
75.563945
  0
ARC
  5
29F
100
AcDbEntity
  8
L
  6
DIVIDE
 62
     4
100
AcDbCircle
 10
119.122156
 20
268.041549
 40
11.424977
100
AcDbArc
 50
68.171287
 51
71.112461
  0
ARC
  5
2A0
100
AcDbEntity
  8
L
  6
DIVIDE
 62
     4
100
AcDbCircle
 10
119.917755
 20
270.027801
 40
9.285310
100
AcDbArc
 50
64.504368
 51
68.171288
  0
ARC
  5
2A1
100
AcDbEntity
  8
L
  6
DIVIDE
 62
     4
100
AcDbCircle
 10
120.339662
 20
270.912521
 40
8.305142
100
AcDbArc
 50
61.098588
 51
64.504366
  0
ARC
  5
2A2
100
AcDbEntity
  8
L
  6
DIVIDE
 62
     4
100
AcDbCircle
 10
121.171929
 20
272.420084
 40
6.583103
100
AcDbArc
 50
56.928980
 51
61.098588
  0
ARC
  5
2A3
100
AcDbEntity
  8
L
  6
DIVIDE
 62
     4
100
AcDbCircle
 10
121.571969
 20
273.034422
 40
5.849996
100
AcDbArc
 50
53.150447
 51
56.928984
  0
ARC
  5
2A4
100
AcDbEntity
  8
L
  6
DIVIDE
 62
     4
100
AcDbCircle
 10
122.285222
 20
273.986130
 40
4.660677
100
AcDbArc
 50
48.663691
 51
53.150440
  0
ARC
  5
2A5
100
AcDbEntity
  8
L
  6
DIVIDE
 62
     4
100
AcDbCircle
 10
122.647490
 20
274.397965
 40
4.112183
100
AcDbArc
 50
43.306401
 51
48.663690
  0
ARC
  5
2A6
100
AcDbEntity
  8
L
  6
DIVIDE
 62
     4
100
AcDbCircle
 10
123.335993
 20
275.046923
 40
3.166042
100
AcDbArc
 50
36.904781
 51
43.306398
  0
ARC
  5
2A7
100
AcDbEntity
  8
L
  6
DIVIDE
 62
     4
100
AcDbCircle
 10
123.654299
 20
275.285955
 40
2.767981
100
AcDbArc
 50
29.310777
 51
36.904785
  0
ARC
  5
2A8
100
AcDbEntity
  8
L
  6
DIVIDE
 62
     4
100
AcDbCircle
 10
124.168354
 20
275.574556
 40
2.178450
100
AcDbArc
 50
20.477253
 51
29.310783
  0
ARC
  5
2A9
100
AcDbEntity
  8
L
  6
DIVIDE
 62
     4
100
AcDbCircle
 10
124.359447
 20
275.645916
 40
1.974468
100
AcDbArc
 50
10.562293
 51
20.477251
  0
ARC
  5
2AA
100
AcDbEntity
  8
L
  6
DIVIDE
 62
     4
100
AcDbCircle
 10
124.551543
 20
275.681735
 40
1.779062
100
AcDbArc
 50
0.000000
 51
10.562298
  0
ARC
  5
2AB
100
AcDbEntity
  8
L
  6
DIVIDE
 62
     4
100
AcDbCircle
 10
124.524133
 20
275.681735
 40
1.806472
100
AcDbArc
 50
336.110822
 51
0.000000
  0
ARC
  5
2AC
100
AcDbEntity
  8
L
  6
DIVIDE
 62
     4
100
AcDbCircle
 10
123.570765
 20
276.103993
 40
2.849169
100
AcDbArc
 50
318.246138
 51
336.110852
  0
ARC
  5
2AD
100
AcDbEntity
  8
L
  6
DIVIDE
 62
     4
100
AcDbCircle
 10
122.801374
 20
276.790793
 40
3.880502
100
AcDbArc
 50
308.388141
 51
318.246137
  0
ARC
  5
2AE
100
AcDbEntity
  8
L
  6
DIVIDE
 62
     4
100
AcDbCircle
 10
121.448758
 20
278.498096
 40
6.058682
100
AcDbArc
 50
301.296966
 51
308.388138
  0
ARC
  5
2AF
100
AcDbEntity
  8
L
  6
DIVIDE
 62
     4
100
AcDbCircle
 10
120.523958
 20
280.019306
 40
7.838944
100
AcDbArc
 50
292.047877
 51
301.296970
  0
ARC
  5
2B0
100
AcDbEntity
  8
L
  6
DIVIDE
 62
     4
100
AcDbCircle
 10
118.754889
 20
284.387396
 40
12.551672
100
AcDbArc
 50
286.322758
 51
292.047872
  0
ARC
  5
2B1
100
AcDbEntity
  8
L
  6
DIVIDE
 62
     4
100
AcDbCircle
 10
117.882805
 20
287.365300
 40
15.654646
100
AcDbArc
 50
275.995746
 51
286.322757
  0
ARC
  5
2B2
100
AcDbEntity
  8
L
  6
DIVIDE
 62
     4
100
AcDbCircle
 10
117.330605
 20
292.622893
 40
20.941158
100
AcDbArc
 50
270.000000
 51
275.995744
  0
ARC
  5
2B3
100
AcDbEntity
  8
L
  6
DIVIDE
 62
     4
100
AcDbCircle
 10
117.330605
 20
292.139979
 40
20.458246
100
AcDbArc
 50
265.322475
 51
270.000000
  0
ARC
  5
2B4
100
AcDbEntity
  8
L
  6
DIVIDE
 62
     4
100
AcDbCircle
 10
117.105894
 20
289.393575
 40
17.702661
100
AcDbArc
 50
258.826165
 51
265.322474
  0
ARC
  5
2B5
100
AcDbEntity
  8
L
  6
DIVIDE
 62
     4
100
AcDbCircle
 10
116.753049
 20
287.607296
 40
15.881868
100
AcDbArc
 50
255.563945
 51
258.826165
  0
ARC
  5
2B6
100
AcDbEntity
  8
L
  6
DIVIDE
 62
     4
100
AcDbCircle
 10
115.986673
 20
284.630238
 40
12.807751
100
AcDbArc
 50
251.112461
 51
255.563945
  0
ARC
  5
2B7
100
AcDbEntity
  8
L
  6
DIVIDE
 62
     4
100
AcDbCircle
 10
115.539054
 20
283.321921
 40
11.424977
100
AcDbArc
 50
248.171287
 51
251.112461
  0
ARC
  5
2B8
100
AcDbEntity
  8
L
  6
DIVIDE
 62
     4
100
AcDbCircle
 10
114.743455
 20
281.335669
 40
9.285310
100
AcDbArc
 50
244.504368
 51
248.171288
  0
ARC
  5
2B9
100
AcDbEntity
  8
L
  6
DIVIDE
 62
     4
100
AcDbCircle
 10
114.321548
 20
280.450949
 40
8.305142
100
AcDbArc
 50
241.098588
 51
244.504366
  0
ARC
  5
2BA
100
AcDbEntity
  8
L
  6
DIVIDE
 62
     4
100
AcDbCircle
 10
113.489281
 20
278.943386
 40
6.583103
100
AcDbArc
 50
236.928980
 51
241.098588
  0
ARC
  5
2BB
100
AcDbEntity
  8
L
  6
DIVIDE
 62
     4
100
AcDbCircle
 10
113.089241
 20
278.329048
 40
5.849996
100
AcDbArc
 50
233.150447
 51
236.928984
  0
ARC
  5
2BC
100
AcDbEntity
  8
L
  6
DIVIDE
 62
     4
100
AcDbCircle
 10
112.375988
 20
277.377340
 40
4.660677
100
AcDbArc
 50
228.663691
 51
233.150440
  0
ARC
  5
2BD
100
AcDbEntity
  8
L
  6
DIVIDE
 62
     4
100
AcDbCircle
 10
112.013720
 20
276.965505
 40
4.112183
100
AcDbArc
 50
223.306401
 51
228.663690
  0
ARC
  5
2BE
100
AcDbEntity
  8
L
  6
DIVIDE
 62
     4
100
AcDbCircle
 10
111.325217
 20
276.316547
 40
3.166042
100
AcDbArc
 50
216.904781
 51
223.306398
  0
ARC
  5
2BF
100
AcDbEntity
  8
L
  6
DIVIDE
 62
     4
100
AcDbCircle
 10
111.006911
 20
276.077515
 40
2.767981
100
AcDbArc
 50
209.310777
 51
216.904785
  0
ARC
  5
2C0
100
AcDbEntity
  8
L
  6
DIVIDE
 62
     4
100
AcDbCircle
 10
110.492856
 20
275.788914
 40
2.178450
100
AcDbArc
 50
200.477253
 51
209.310783
  0
ARC
  5
2C1
100
AcDbEntity
  8
L
  6
DIVIDE
 62
     4
100
AcDbCircle
 10
110.301763
 20
275.717554
 40
1.974468
100
AcDbArc
 50
190.562293
 51
200.477251
  0
ARC
  5
2C2
100
AcDbEntity
  8
L
  6
DIVIDE
 62
     4
100
AcDbCircle
 10
110.109667
 20
275.681735
 40
1.779062
100
AcDbArc
 50
180.000000
 51
190.562298
  0
ARC
  5
2C3
100
AcDbEntity
  8
L
  6
DIVIDE
 62
     4
100
AcDbCircle
 10
106.524113
 20
275.681735
 40
1.806472
100
AcDbArc
 50
336.110822
 51
0.000000
  0
ARC
  5
2C4
100
AcDbEntity
  8
L
  6
DIVIDE
 62
     4
100
AcDbCircle
 10
105.570745
 20
276.103993
 40
2.849169
100
AcDbArc
 50
318.246138
 51
336.110852
  0
ARC
  5
2C5
100
AcDbEntity
  8
L
  6
DIVIDE
 62
     4
100
AcDbCircle
 10
104.801354
 20
276.790793
 40
3.880502
100
AcDbArc
 50
308.388141
 51
318.246137
  0
ARC
  5
2C6
100
AcDbEntity
  8
L
  6
DIVIDE
 62
     4
100
AcDbCircle
 10
103.448738
 20
278.498096
 40
6.058682
100
AcDbArc
 50
301.296966
 51
308.388138
  0
ARC
  5
2C7
100
AcDbEntity
  8
L
  6
DIVIDE
 62
     4
100
AcDbCircle
 10
102.523938
 20
280.019306
 40
7.838944
100
AcDbArc
 50
292.047877
 51
301.296970
  0
ARC
  5
2C8
100
AcDbEntity
  8
L
  6
DIVIDE
 62
     4
100
AcDbCircle
 10
100.754869
 20
284.387396
 40
12.551672
100
AcDbArc
 50
286.322758
 51
292.047872
  0
ARC
  5
2C9
100
AcDbEntity
  8
L
  6
DIVIDE
 62
     4
100
AcDbCircle
 10
99.882785
 20
287.365300
 40
15.654646
100
AcDbArc
 50
275.995746
 51
286.322757
  0
ARC
  5
2CA
100
AcDbEntity
  8
L
  6
DIVIDE
 62
     4
100
AcDbCircle
 10
99.330585
 20
292.622893
 40
20.941158
100
AcDbArc
 50
270.000000
 51
275.995744
  0
ARC
  5
2CB
100
AcDbEntity
  8
L
  6
DIVIDE
 62
     4
100
AcDbCircle
 10
99.330585
 20
292.139979
 40
20.458246
100
AcDbArc
 50
265.322475
 51
270.000000
  0
ARC
  5
2CC
100
AcDbEntity
  8
L
  6
DIVIDE
 62
     4
100
AcDbCircle
 10
99.105874
 20
289.393575
 40
17.702661
100
AcDbArc
 50
258.826165
 51
265.322474
  0
ARC
  5
2CD
100
AcDbEntity
  8
L
  6
DIVIDE
 62
     4
100
AcDbCircle
 10
98.753029
 20
287.607296
 40
15.881868
100
AcDbArc
 50
255.563945
 51
258.826165
  0
ARC
  5
2CE
100
AcDbEntity
  8
L
  6
DIVIDE
 62
     4
100
AcDbCircle
 10
97.986653
 20
284.630238
 40
12.807751
100
AcDbArc
 50
251.112461
 51
255.563945
  0
ARC
  5
2CF
100
AcDbEntity
  8
L
  6
DIVIDE
 62
     4
100
AcDbCircle
 10
97.539034
 20
283.321921
 40
11.424977
100
AcDbArc
 50
248.171287
 51
251.112461
  0
ARC
  5
2D0
100
AcDbEntity
  8
L
  6
DIVIDE
 62
     4
100
AcDbCircle
 10
96.743435
 20
281.335669
 40
9.285310
100
AcDbArc
 50
244.504368
 51
248.171288
  0
ARC
  5
2D1
100
AcDbEntity
  8
L
  6
DIVIDE
 62
     4
100
AcDbCircle
 10
96.321528
 20
280.450949
 40
8.305142
100
AcDbArc
 50
241.098588
 51
244.504366
  0
ARC
  5
2D2
100
AcDbEntity
  8
L
  6
DIVIDE
 62
     4
100
AcDbCircle
 10
95.489261
 20
278.943386
 40
6.583103
100
AcDbArc
 50
236.928980
 51
241.098588
  0
ARC
  5
2D3
100
AcDbEntity
  8
L
  6
DIVIDE
 62
     4
100
AcDbCircle
 10
95.089221
 20
278.329048
 40
5.849996
100
AcDbArc
 50
233.150447
 51
236.928984
  0
ARC
  5
2D4
100
AcDbEntity
  8
L
  6
DIVIDE
 62
     4
100
AcDbCircle
 10
94.375968
 20
277.377340
 40
4.660677
100
AcDbArc
 50
228.663691
 51
233.150440
  0
ARC
  5
2D5
100
AcDbEntity
  8
L
  6
DIVIDE
 62
     4
100
AcDbCircle
 10
94.013700
 20
276.965505
 40
4.112183
100
AcDbArc
 50
223.306401
 51
228.663690
  0
ARC
  5
2D6
100
AcDbEntity
  8
L
  6
DIVIDE
 62
     4
100
AcDbCircle
 10
93.325197
 20
276.316547
 40
3.166042
100
AcDbArc
 50
216.904781
 51
223.306398
  0
ARC
  5
2D7
100
AcDbEntity
  8
L
  6
DIVIDE
 62
     4
100
AcDbCircle
 10
93.006891
 20
276.077515
 40
2.767981
100
AcDbArc
 50
209.310777
 51
216.904785
  0
ARC
  5
2D8
100
AcDbEntity
  8
L
  6
DIVIDE
 62
     4
100
AcDbCircle
 10
92.492836
 20
275.788914
 40
2.178450
100
AcDbArc
 50
200.477253
 51
209.310783
  0
ARC
  5
2D9
100
AcDbEntity
  8
L
  6
DIVIDE
 62
     4
100
AcDbCircle
 10
92.301743
 20
275.717554
 40
1.974468
100
AcDbArc
 50
190.562293
 51
200.477251
  0
ARC
  5
2DA
100
AcDbEntity
  8
L
  6
DIVIDE
 62
     4
100
AcDbCircle
 10
92.109647
 20
275.681735
 40
1.779062
100
AcDbArc
 50
180.000000
 51
190.562298
  0
LINE
  5
2DB
100
AcDbEntity
  8
L
  6
DIVIDE
 62
     4
100
AcDbLine
 10
126.330605
 20
303.467360
 11
126.330605
 21
275.681735
  0
LINE
  5
2DC
100
AcDbEntity
  8
L
  6
DIVIDE
 62
     4
100
AcDbLine
 10
125.830570
 20
303.467360
 11
126.330605
 21
303.467360
  0
LINE
  5
2DD
100
AcDbEntity
  8
L
  6
DIVIDE
 62
     4
100
AcDbLine
 10
90.330585
 20
275.681735
 11
90.330605
 21
303.467360
  0
ENDBLK
  5
2DE
100
AcDbEntity
  8
0
100
AcDbBlockEnd
  0
BLOCK
  5
2DF
100
AcDbEntity
  8
L
100
AcDbBlockBegin
  2
B-6
 70
    66
 10
0.000000
 20
0.000000
 30
0.000000
  0
LINE
  5
2E0
100
AcDbEntity
  8
L
  6
DIVIDE
 62
     4
100
AcDbLine
 10
22.830565
 20
-99.480970
 11
-151.169430
 21
-99.480970
  0
ARC
  5
2E1
100
AcDbEntity
  8
L
  6
DIVIDE
 62
     4
100
AcDbCircle
 10
22.830562
 20
-117.480969
 40
17.999999
100
AcDbArc
 50
359.999998
 51
89.999992
  0
ARC
  5
2E2
100
AcDbEntity
  8
L
  6
DIVIDE
 62
     4
100
AcDbCircle
 10
-151.169438
 20
-117.480969
 40
17.999999
100
AcDbArc
 50
89.999992
 51
180.000002
  0
LINE
  5
2E3
100
AcDbEntity
  8
L
  6
DIVIDE
 62
     4
100
AcDbLine
 10
-169.169435
 20
-117.480970
 11
-169.169430
 21
-161.725310
  0
LINE
  5
2E4
100
AcDbEntity
  8
L
  6
DIVIDE
 62
     4
100
AcDbLine
 10
-150.359095
 20
-210.848095
 11
-163.789485
 21
-184.287460
  0
ARC
  5
2E5
100
AcDbEntity
  8
L
  6
DIVIDE
 62
     4
100
AcDbCircle
 10
-119.169438
 20
-161.725310
 40
49.999992
100
AcDbArc
 50
180.000000
 51
206.823463
  0
ARC
  5
2E6
100
AcDbEntity
  8
L
  6
DIVIDE
 62
     4
100
AcDbCircle
 10
-128.092400
 20
-208.480969
 40
20.000001
100
AcDbArc
 50
220.320226
 51
270.000001
  0
ARC
  5
2E7
100
AcDbEntity
  8
L
  6
DIVIDE
 62
     4
100
AcDbCircle
 10
-102.169438
 20
-186.480969
 40
53.999995
100
AcDbArc
 50
206.823469
 51
220.320216
  0
LINE
  5
2E8
100
AcDbEntity
  8
L
  6
DIVIDE
 62
     4
100
AcDbLine
 10
-64.169435
 20
-228.480970
 11
-128.092395
 21
-228.480970
  0
LINE
  5
2E9
100
AcDbEntity
  8
L
  6
DIVIDE
 62
     4
100
AcDbLine
 10
40.830565
 20
-161.725310
 11
40.830570
 21
-117.480970
  0
LINE
  5
2EA
100
AcDbEntity
  8
L
  6
DIVIDE
 62
     4
100
AcDbLine
 10
22.020225
 20
-210.848095
 11
35.450625
 21
-184.287460
  0
ARC
  5
2EB
100
AcDbEntity
  8
L
  6
DIVIDE
 62
     4
100
AcDbCircle
 10
-9.169438
 20
-161.725310
 40
50.000001
100
AcDbArc
 50
333.176540
 51
0.000000
  0
ARC
  5
2EC
100
AcDbEntity
  8
L
  6
DIVIDE
 62
     4
100
AcDbCircle
 10
-0.246475
 20
-208.480969
 40
20.000001
100
AcDbArc
 50
270.000014
 51
319.679802
  0
ARC
  5
2ED
100
AcDbEntity
  8
L
  6
DIVIDE
 62
     4
100
AcDbCircle
 10
-26.169438
 20
-186.480969
 40
54.000002
100
AcDbArc
 50
319.679788
 51
333.176538
  0
LINE
  5
2EE
100
AcDbEntity
  8
L
  6
DIVIDE
 62
     4
100
AcDbLine
 10
-64.169435
 20
-228.480970
 11
-0.246465
 21
-228.480970
  0
LINE
  5
2EF
100
AcDbEntity
  8
L
  6
BORDER
 62
     4
100
AcDbLine
 10
-4.169435
 20
-243.980970
 11
-4.169435
 21
-230.980970
  0
LINE
  5
2F0
100
AcDbEntity
  8
L
  6
BORDER
 62
     4
100
AcDbLine
 10
2.330565
 20
-237.480970
 11
-10.669435
 21
-237.480970
  0
LINE
  5
2F1
100
AcDbEntity
  8
L
  6
BORDER
 62
     4
100
AcDbLine
 10
35.830565
 20
-209.980970
 11
35.830565
 21
-196.980970
  0
LINE
  5
2F2
100
AcDbEntity
  8
L
  6
BORDER
 62
     4
100
AcDbLine
 10
42.330565
 20
-203.480970
 11
29.330565
 21
-203.480970
  0
LINE
  5
2F3
100
AcDbEntity
  8
L
  6
BORDER
 62
     4
100
AcDbLine
 10
-57.669435
 20
-237.480970
 11
-70.669435
 21
-237.480970
  0
LINE
  5
2F4
100
AcDbEntity
  8
L
  6
BORDER
 62
     4
100
AcDbLine
 10
-124.169435
 20
-243.980970
 11
-124.169435
 21
-230.980970
  0
LINE
  5
2F5
100
AcDbEntity
  8
L
  6
BORDER
 62
     4
100
AcDbLine
 10
-117.669435
 20
-237.480970
 11
-130.669435
 21
-237.480970
  0
LINE
  5
2F6
100
AcDbEntity
  8
L
  6
BORDER
 62
     4
100
AcDbLine
 10
-164.169435
 20
-209.980970
 11
-164.169435
 21
-196.980970
  0
LINE
  5
2F7
100
AcDbEntity
  8
L
  6
BORDER
 62
     4
100
AcDbLine
 10
-157.669435
 20
-203.480970
 11
-170.669435
 21
-203.480970
  0
LINE
  5
2F8
100
AcDbEntity
  8
L
  6
BORDER
 62
     4
100
AcDbLine
 10
-178.169435
 20
-164.980970
 11
-178.169435
 21
-151.980970
  0
LINE
  5
2F9
100
AcDbEntity
  8
L
  6
BORDER
 62
     4
100
AcDbLine
 10
-171.669435
 20
-158.480970
 11
-184.669435
 21
-158.480970
  0
LINE
  5
2FA
100
AcDbEntity
  8
L
  6
BORDER
 62
     4
100
AcDbLine
 10
-176.669435
 20
-114.980970
 11
-176.669435
 21
-101.980970
  0
LINE
  5
2FB
100
AcDbEntity
  8
L
  6
BORDER
 62
     4
100
AcDbLine
 10
-170.169435
 20
-108.480970
 11
-183.169435
 21
-108.480970
  0
LINE
  5
2FC
100
AcDbEntity
  8
L
  6
BORDER
 62
     4
100
AcDbLine
 10
-124.169435
 20
-96.980970
 11
-124.169435
 21
-83.980970
  0
LINE
  5
2FD
100
AcDbEntity
  8
L
  6
BORDER
 62
     4
100
AcDbLine
 10
-117.669435
 20
-90.480970
 11
-130.669435
 21
-90.480970
  0
LINE
  5
2FE
100
AcDbEntity
  8
L
  6
BORDER
 62
     4
100
AcDbLine
 10
-57.669435
 20
-90.480970
 11
-70.669435
 21
-90.480970
  0
LINE
  5
2FF
100
AcDbEntity
  8
L
  6
BORDER
 62
     4
100
AcDbLine
 10
-4.169435
 20
-96.980970
 11
-4.169435
 21
-83.980970
  0
LINE
  5
300
100
AcDbEntity
  8
L
  6
BORDER
 62
     4
100
AcDbLine
 10
2.330565
 20
-90.480970
 11
-10.669435
 21
-90.480970
  0
LINE
  5
301
100
AcDbEntity
  8
L
  6
BORDER
 62
     4
100
AcDbLine
 10
48.330565
 20
-114.980970
 11
48.330565
 21
-101.980970
  0
LINE
  5
302
100
AcDbEntity
  8
L
  6
BORDER
 62
     4
100
AcDbLine
 10
54.830565
 20
-108.480970
 11
41.830565
 21
-108.480970
  0
LINE
  5
303
100
AcDbEntity
  8
L
  6
BORDER
 62
     4
100
AcDbLine
 10
49.830565
 20
-164.980970
 11
49.830565
 21
-151.980970
  0
LINE
  5
304
100
AcDbEntity
  8
L
  6
BORDER
 62
     4
100
AcDbLine
 10
56.330565
 20
-158.480970
 11
43.330565
 21
-158.480970
  0
ARC
  5
305
100
AcDbEntity
  8
L
  6
DIVIDE
 62
     4
100
AcDbCircle
 10
-151.169438
 20
-117.480969
 40
35.999994
100
AcDbArc
 50
89.999980
 51
180.000009
  0
LINE
  5
306
100
AcDbEntity
  8
L
  6
DIVIDE
 62
     4
100
AcDbLine
 10
22.830570
 20
-81.480975
 11
-151.169425
 21
-81.480975
  0
ARC
  5
307
100
AcDbEntity
  8
L
  6
DIVIDE
 62
     4
100
AcDbCircle
 10
22.830562
 20
-117.480969
 40
36.000008
100
AcDbArc
 50
359.999991
 51
89.999980
  0
LINE
  5
308
100
AcDbEntity
  8
L
  6
DIVIDE
 62
     4
100
AcDbLine
 10
58.830570
 20
-161.725315
 11
58.830575
 21
-117.480975
  0
ARC
  5
309
100
AcDbEntity
  8
L
  6
DIVIDE
 62
     4
100
AcDbCircle
 10
-9.169438
 20
-161.725310
 40
68.000013
100
AcDbArc
 50
333.176537
 51
359.999996
  0
LINE
  5
30A
100
AcDbEntity
  8
L
  6
DIVIDE
 62
     4
100
AcDbLine
 10
42.627105
 20
-209.984710
 11
51.513850
 21
-192.409840
  0
ARC
  5
30B
100
AcDbEntity
  8
L
  6
DIVIDE
 62
     4
100
AcDbCircle
 10
-10.916971
 20
-182.910127
 40
60.000014
100
AcDbArc
 50
299.000005
 51
333.176542
  0
LINE
  5
30C
100
AcDbEntity
  8
L
  6
DIVIDE
 62
     4
100
AcDbLine
 10
-187.169430
 20
-117.480975
 11
-187.169425
 21
-161.725315
  0
ARC
  5
30D
100
AcDbEntity
  8
L
  6
DIVIDE
 62
     4
100
AcDbCircle
 10
-119.169438
 20
-161.725310
 40
67.999995
100
AcDbArc
 50
180.000004
 51
206.823469
  0
LINE
  5
30E
100
AcDbEntity
  8
L
  6
DIVIDE
 62
     4
100
AcDbLine
 10
-170.965965
 20
-209.984710
 11
-179.852700
 21
-192.409840
  0
ARC
  5
30F
100
AcDbEntity
  8
L
  6
DIVIDE
 62
     4
100
AcDbCircle
 10
-117.421904
 20
-182.910127
 40
60.000002
100
AcDbArc
 50
206.823469
 51
241.000008
  0
CIRCLE
  5
310
100
AcDbEntity
  8
L
  6
BORDER
 62
     4
100
AcDbCircle
 10
-236.669430
 20
-72.480980
 40
7.450005
  0
CIRCLE
  5
311
100
AcDbEntity
  8
L
  6
BORDER
 62
     4
100
AcDbCircle
 10
-201.169430
 20
-72.480980
 40
7.450005
  0
CIRCLE
  5
312
100
AcDbEntity
  8
L
  6
BORDER
 62
     4
100
AcDbCircle
 10
-215.169430
 20
-103.480980
 40
7.450005
  0
CIRCLE
  5
313
100
AcDbEntity
  8
L
  6
BORDER
 62
     4
100
AcDbCircle
 10
-239.169430
 20
-103.480980
 40
7.450005
  0
CIRCLE
  5
314
100
AcDbEntity
  8
L
  6
BORDER
 62
     4
100
AcDbCircle
 10
-239.169430
 20
-162.480970
 40
7.450005
  0
CIRCLE
  5
315
100
AcDbEntity
  8
L
  6
BORDER
 62
     4
100
AcDbCircle
 10
-175.169435
 20
-220.480975
 40
7.450005
  0
CIRCLE
  5
316
100
AcDbEntity
  8
L
  6
BORDER
 62
     4
100
AcDbCircle
 10
46.830565
 20
-220.480975
 40
7.450005
  0
CIRCLE
  5
317
100
AcDbEntity
  8
L
  6
BORDER
 62
     4
100
AcDbCircle
 10
72.830565
 20
-119.480975
 40
7.450005
  0
CIRCLE
  5
318
100
AcDbEntity
  8
L
  6
BORDER
 62
     4
100
AcDbCircle
 10
72.830560
 20
-72.480980
 40
7.450005
  0
CIRCLE
  5
319
100
AcDbEntity
  8
L
  6
BORDER
 62
     4
100
AcDbCircle
 10
108.330560
 20
-72.480980
 40
7.450005
  0
LINE
  5
31A
100
AcDbEntity
  8
L
  6
DIVIDE
 62
     4
100
AcDbLine
 10
-186.169435
 20
-131.481035
 11
-186.169435
 21
-136.965905
  0
LINE
  5
31B
100
AcDbEntity
  8
L
  6
DIVIDE
 62
     4
100
AcDbLine
 10
-185.837105
 20
-142.031075
 11
-180.169435
 21
-142.031075
  0
LINE
  5
31C
100
AcDbEntity
  8
L
  6
DIVIDE
 62
     4
100
AcDbLine
 10
-185.169440
 20
-136.965905
 11
-180.969435
 21
-136.965905
  0
LINE
  5
31D
100
AcDbEntity
  8
L
  6
DIVIDE
 62
     4
100
AcDbLine
 10
-186.169435
 20
-139.498495
 11
-186.169435
 21
-136.965905
  0
ARC
  5
31E
100
AcDbEntity
  8
L
  6
DIVIDE
 62
     4
100
AcDbCircle
 10
-178.764653
 20
-139.498495
 40
7.404782
100
AcDbArc
 50
179.999923
 51
189.999985
  0
LINE
  5
31F
100
AcDbEntity
  8
L
  6
DIVIDE
 62
     4
100
AcDbLine
 10
-186.056940
 20
-140.784320
 11
-185.837105
 21
-142.031075
  0
ARC
  5
320
100
AcDbEntity
  8
L
  6
DIVIDE
 62
     4
100
AcDbCircle
 10
-182.462441
 20
-139.498490
 40
3.706998
100
AcDbArc
 50
136.906548
 51
223.093453
  0
ARC
  5
321
100
AcDbEntity
  8
L
  6
DIVIDE
 62
     4
100
AcDbCircle
 10
-170.627754
 20
-131.481075
 40
15.541681
100
AcDbArc
 50
179.999853
 51
200.665462
  0
LINE
  5
322
100
AcDbEntity
  8
L
  6
DIVIDE
 62
     4
100
AcDbLine
 10
-180.969440
 20
-131.481015
 11
-180.969435
 21
-142.031075
  0
LINE
  5
323
100
AcDbEntity
  8
L
  6
DIVIDE
 62
     4
100
AcDbLine
 10
-180.169440
 20
-131.481010
 11
-180.169435
 21
-143.981075
  0
LINE
  5
324
100
AcDbEntity
  8
L
  6
DIVIDE
 62
     4
100
AcDbLine
 10
-179.169435
 20
-144.981075
 11
-178.169435
 21
-144.981075
  0
ARC
  5
325
100
AcDbEntity
  8
L
  6
DIVIDE
 62
     4
100
AcDbCircle
 10
-179.169434
 20
-143.981075
 40
1.000001
100
AcDbArc
 50
180.000003
 51
269.999944
  0
LINE
  5
326
100
AcDbEntity
  8
L
  6
DIVIDE
 62
     4
100
AcDbLine
 10
-176.669435
 20
-131.481000
 11
-176.669430
 21
-145.481030
  0
LINE
  5
327
100
AcDbEntity
  8
L
  6
DIVIDE
 62
     4
100
AcDbLine
 10
-176.669430
 20
-145.481030
 11
-170.568430
 21
-145.480990
  0
LINE
  5
328
100
AcDbEntity
  8
L
  6
DIVIDE
 62
     4
100
AcDbLine
 10
-178.169435
 20
-131.481005
 11
-178.169430
 21
-144.981065
  0
LINE
  5
329
100
AcDbEntity
  8
L
  6
DIVIDE
 62
     4
100
AcDbLine
 10
-178.169430
 20
-144.981065
 11
-176.669430
 21
-144.981055
  0
LINE
  5
32A
100
AcDbEntity
  8
L
  6
DIVIDE
 62
     4
100
AcDbLine
 10
-186.169435
 20
-131.481075
 11
-186.169435
 21
-125.996205
  0
LINE
  5
32B
100
AcDbEntity
  8
L
  6
DIVIDE
 62
     4
100
AcDbLine
 10
-185.837105
 20
-120.931035
 11
-180.169435
 21
-120.931035
  0
LINE
  5
32C
100
AcDbEntity
  8
L
  6
DIVIDE
 62
     4
100
AcDbLine
 10
-185.169440
 20
-125.996205
 11
-180.969435
 21
-125.996205
  0
LINE
  5
32D
100
AcDbEntity
  8
L
  6
DIVIDE
 62
     4
100
AcDbLine
 10
-186.169435
 20
-123.463615
 11
-186.169435
 21
-125.996205
  0
ARC
  5
32E
100
AcDbEntity
  8
L
  6
DIVIDE
 62
     4
100
AcDbCircle
 10
-178.764653
 20
-123.463615
 40
7.404782
100
AcDbArc
 50
170.000015
 51
180.000077
  0
LINE
  5
32F
100
AcDbEntity
  8
L
  6
DIVIDE
 62
     4
100
AcDbLine
 10
-186.056940
 20
-122.177790
 11
-185.837105
 21
-120.931035
  0
ARC
  5
330
100
AcDbEntity
  8
L
  6
DIVIDE
 62
     4
100
AcDbCircle
 10
-182.462441
 20
-123.463620
 40
3.706998
100
AcDbArc
 50
136.906547
 51
223.093452
  0
ARC
  5
331
100
AcDbEntity
  8
L
  6
DIVIDE
 62
     4
100
AcDbCircle
 10
-170.627754
 20
-131.481035
 40
15.541681
100
AcDbArc
 50
159.334538
 51
180.000147
  0
LINE
  5
332
100
AcDbEntity
  8
L
  6
DIVIDE
 62
     4
100
AcDbLine
 10
-180.969440
 20
-131.481095
 11
-180.969435
 21
-120.931035
  0
LINE
  5
333
100
AcDbEntity
  8
L
  6
DIVIDE
 62
     4
100
AcDbLine
 10
-180.169440
 20
-131.481100
 11
-180.169435
 21
-118.981035
  0
LINE
  5
334
100
AcDbEntity
  8
L
  6
DIVIDE
 62
     4
100
AcDbLine
 10
-179.169435
 20
-117.981035
 11
-178.169435
 21
-117.981035
  0
ARC
  5
335
100
AcDbEntity
  8
L
  6
DIVIDE
 62
     4
100
AcDbCircle
 10
-179.169434
 20
-118.981035
 40
1.000001
100
AcDbArc
 50
90.000056
 51
179.999997
  0
LINE
  5
336
100
AcDbEntity
  8
L
  6
DIVIDE
 62
     4
100
AcDbLine
 10
-176.669435
 20
-131.481110
 11
-176.669430
 21
-117.481080
  0
LINE
  5
337
100
AcDbEntity
  8
L
  6
DIVIDE
 62
     4
100
AcDbLine
 10
-176.669430
 20
-117.481080
 11
-170.568430
 21
-117.481120
  0
LINE
  5
338
100
AcDbEntity
  8
L
  6
DIVIDE
 62
     4
100
AcDbLine
 10
-178.169435
 20
-131.481105
 11
-178.169430
 21
-117.981045
  0
LINE
  5
339
100
AcDbEntity
  8
L
  6
DIVIDE
 62
     4
100
AcDbLine
 10
-178.169430
 20
-117.981045
 11
-176.669430
 21
-117.981055
  0
LINE
  5
33A
100
AcDbEntity
  8
L
  6
BORDER
 62
     4
100
AcDbLine
 10
-200.669435
 20
-131.481090
 11
-164.021435
 21
-131.480950
  0
LINE
  5
33B
100
AcDbEntity
  8
L
  6
DIVIDE
 62
     4
100
AcDbLine
 10
-85.169435
 20
-245.480975
 11
-79.684565
 21
-245.480975
  0
LINE
  5
33C
100
AcDbEntity
  8
L
  6
DIVIDE
 62
     4
100
AcDbLine
 10
-74.619395
 20
-245.148645
 11
-74.619395
 21
-239.480975
  0
LINE
  5
33D
100
AcDbEntity
  8
L
  6
DIVIDE
 62
     4
100
AcDbLine
 10
-79.684565
 20
-244.480980
 11
-79.684565
 21
-240.280975
  0
LINE
  5
33E
100
AcDbEntity
  8
L
  6
DIVIDE
 62
     4
100
AcDbLine
 10
-77.151975
 20
-245.480975
 11
-79.684565
 21
-245.480975
  0
ARC
  5
33F
100
AcDbEntity
  8
L
  6
DIVIDE
 62
     4
100
AcDbCircle
 10
-77.151975
 20
-238.076193
 40
7.404782
100
AcDbArc
 50
269.999923
 51
279.999985
  0
LINE
  5
340
100
AcDbEntity
  8
L
  6
DIVIDE
 62
     4
100
AcDbLine
 10
-75.866150
 20
-245.368480
 11
-74.619395
 21
-245.148645
  0
ARC
  5
341
100
AcDbEntity
  8
L
  6
DIVIDE
 62
     4
100
AcDbCircle
 10
-77.151980
 20
-241.773981
 40
3.706998
100
AcDbArc
 50
226.906548
 51
313.093453
  0
ARC
  5
342
100
AcDbEntity
  8
L
  6
DIVIDE
 62
     4
100
AcDbCircle
 10
-85.169395
 20
-229.939294
 40
15.541681
100
AcDbArc
 50
269.999853
 51
290.665462
  0
LINE
  5
343
100
AcDbEntity
  8
L
  6
DIVIDE
 62
     4
100
AcDbLine
 10
-85.169455
 20
-240.280980
 11
-74.619395
 21
-240.280975
  0
LINE
  5
344
100
AcDbEntity
  8
L
  6
DIVIDE
 62
     4
100
AcDbLine
 10
-85.169460
 20
-239.480980
 11
-72.669395
 21
-239.480975
  0
LINE
  5
345
100
AcDbEntity
  8
L
  6
DIVIDE
 62
     4
100
AcDbLine
 10
-71.669395
 20
-238.480975
 11
-71.669395
 21
-237.480975
  0
ARC
  5
346
100
AcDbEntity
  8
L
  6
DIVIDE
 62
     4
100
AcDbCircle
 10
-72.669395
 20
-238.480974
 40
1.000001
100
AcDbArc
 50
270.000003
 51
359.999944
  0
LINE
  5
347
100
AcDbEntity
  8
L
  6
DIVIDE
 62
     4
100
AcDbLine
 10
-85.169470
 20
-235.980975
 11
-71.169440
 21
-235.980970
  0
LINE
  5
348
100
AcDbEntity
  8
L
  6
DIVIDE
 62
     4
100
AcDbLine
 10
-71.169440
 20
-235.980970
 11
-71.169480
 21
-229.879970
  0
LINE
  5
349
100
AcDbEntity
  8
L
  6
DIVIDE
 62
     4
100
AcDbLine
 10
-85.169465
 20
-237.480975
 11
-71.669405
 21
-237.480970
  0
LINE
  5
34A
100
AcDbEntity
  8
L
  6
DIVIDE
 62
     4
100
AcDbLine
 10
-71.669405
 20
-237.480970
 11
-71.669415
 21
-235.980970
  0
LINE
  5
34B
100
AcDbEntity
  8
L
  6
DIVIDE
 62
     4
100
AcDbLine
 10
-85.169395
 20
-245.480975
 11
-90.654265
 21
-245.480975
  0
LINE
  5
34C
100
AcDbEntity
  8
L
  6
DIVIDE
 62
     4
100
AcDbLine
 10
-95.719435
 20
-245.148645
 11
-95.719435
 21
-239.480975
  0
LINE
  5
34D
100
AcDbEntity
  8
L
  6
DIVIDE
 62
     4
100
AcDbLine
 10
-90.654265
 20
-244.480980
 11
-90.654265
 21
-240.280975
  0
LINE
  5
34E
100
AcDbEntity
  8
L
  6
DIVIDE
 62
     4
100
AcDbLine
 10
-93.186855
 20
-245.480975
 11
-90.654265
 21
-245.480975
  0
ARC
  5
34F
100
AcDbEntity
  8
L
  6
DIVIDE
 62
     4
100
AcDbCircle
 10
-93.186855
 20
-238.076193
 40
7.404782
100
AcDbArc
 50
260.000015
 51
270.000077
  0
LINE
  5
350
100
AcDbEntity
  8
L
  6
DIVIDE
 62
     4
100
AcDbLine
 10
-94.472680
 20
-245.368480
 11
-95.719435
 21
-245.148645
  0
ARC
  5
351
100
AcDbEntity
  8
L
  6
DIVIDE
 62
     4
100
AcDbCircle
 10
-93.186850
 20
-241.773981
 40
3.706998
100
AcDbArc
 50
226.906547
 51
313.093452
  0
ARC
  5
352
100
AcDbEntity
  8
L
  6
DIVIDE
 62
     4
100
AcDbCircle
 10
-85.169435
 20
-229.939294
 40
15.541681
100
AcDbArc
 50
249.334538
 51
270.000147
  0
LINE
  5
353
100
AcDbEntity
  8
L
  6
DIVIDE
 62
     4
100
AcDbLine
 10
-85.169375
 20
-240.280980
 11
-95.719435
 21
-240.280975
  0
LINE
  5
354
100
AcDbEntity
  8
L
  6
DIVIDE
 62
     4
100
AcDbLine
 10
-85.169370
 20
-239.480980
 11
-97.669435
 21
-239.480975
  0
LINE
  5
355
100
AcDbEntity
  8
L
  6
DIVIDE
 62
     4
100
AcDbLine
 10
-98.669435
 20
-238.480975
 11
-98.669435
 21
-237.480975
  0
ARC
  5
356
100
AcDbEntity
  8
L
  6
DIVIDE
 62
     4
100
AcDbCircle
 10
-97.669435
 20
-238.480974
 40
1.000001
100
AcDbArc
 50
180.000056
 51
269.999997
  0
LINE
  5
357
100
AcDbEntity
  8
L
  6
DIVIDE
 62
     4
100
AcDbLine
 10
-85.169360
 20
-235.980975
 11
-99.169390
 21
-235.980970
  0
LINE
  5
358
100
AcDbEntity
  8
L
  6
DIVIDE
 62
     4
100
AcDbLine
 10
-99.169390
 20
-235.980970
 11
-99.169350
 21
-229.879970
  0
LINE
  5
359
100
AcDbEntity
  8
L
  6
DIVIDE
 62
     4
100
AcDbLine
 10
-85.169365
 20
-237.480975
 11
-98.669425
 21
-237.480970
  0
LINE
  5
35A
100
AcDbEntity
  8
L
  6
DIVIDE
 62
     4
100
AcDbLine
 10
-98.669425
 20
-237.480970
 11
-98.669415
 21
-235.980970
  0
LINE
  5
35B
100
AcDbEntity
  8
L
  6
BORDER
 62
     4
100
AcDbLine
 10
-85.169380
 20
-259.980975
 11
-85.169520
 21
-223.332975
  0
CIRCLE
  5
35C
100
AcDbEntity
  8
L
  6
BORDER
 62
     4
100
AcDbCircle
 10
72.830565
 20
-164.480975
 40
7.450005
  0
CIRCLE
  5
35D
100
AcDbEntity
  8
L
  6
BORDER
 62
     4
100
AcDbCircle
 10
-204.169435
 20
-210.480975
 40
7.450005
  0
CIRCLE
  5
35E
100
AcDbEntity
  8
L
  6
BORDER
 62
     4
100
AcDbCircle
 10
72.830565
 20
-205.480975
 40
7.450005
  0
ENDBLK
  5
35F
100
AcDbEntity
  8
0
100
AcDbBlockEnd
  0
BLOCK
  5
360
100
AcDbEntity
  8
L
100
AcDbBlockBegin
  2
B-7
 70
    66
 10
0.000000
 20
0.000000
 30
0.000000
  0
ARC
  5
361
100
AcDbEntity
  8
L
  6
DIVIDE
 62
     4
100
AcDbCircle
 10
-263.980045
 20
-68.308355
 40
25.499994
100
AcDbArc
 50
99.876209
 51
242.499335
  0
LINE
  5
362
100
AcDbEntity
  8
L
  6
DIVIDE
 62
     4
100
AcDbLine
 10
-177.169430
 20
-229.480970
 11
-177.169430
 21
-262.280980
  0
LINE
  5
363
100
AcDbEntity
  8
L
  6
DIVIDE
 62
     4
100
AcDbLine
 10
-177.169430
 20
-262.280980
 11
8.731030
 21
-262.281665
  0
LINE
  5
364
100
AcDbEntity
  8
L
  6
DIVIDE
 62
     4
100
AcDbLine
 10
-252.687975
 20
-192.981040
 11
-288.669415
 21
-192.981040
  0
LINE
  5
365
100
AcDbEntity
  8
L
  6
DIVIDE
 62
     4
100
AcDbLine
 10
-289.669420
 20
-191.981040
 11
-289.669420
 21
-181.981040
  0
LINE
  5
366
100
AcDbEntity
  8
L
  6
DIVIDE
 62
     4
100
AcDbLine
 10
-288.669415
 20
-180.981040
 11
-260.391705
 21
-180.981040
  0
LINE
  5
367
100
AcDbEntity
  8
L
  6
DIVIDE
 62
     4
100
AcDbLine
 10
-289.669420
 20
-191.981040
 11
-288.669420
 21
-192.981040
  0
LINE
  5
368
100
AcDbEntity
  8
L
  6
DIVIDE
 62
     4
100
AcDbLine
 10
-288.669420
 20
-180.981040
 11
-289.669420
 21
-181.981040
  0
ARC
  5
369
100
AcDbEntity
  8
L
  6
DIVIDE
 62
     4
100
AcDbCircle
 10
-206.669300
 20
-206.481193
 40
34.367617
100
AcDbArc
 50
269.999758
 51
317.992475
  0
ARC
  5
36A
100
AcDbEntity
  8
L
  6
DIVIDE
 62
     4
100
AcDbCircle
 10
-206.669300
 20
-206.481193
 40
34.367620
100
AcDbArc
 50
256.046471
 51
269.999758
  0
ARC
  5
36B
100
AcDbEntity
  8
L
  6
DIVIDE
 62
     4
100
AcDbCircle
 10
-206.669300
 20
-206.481193
 40
34.367620
100
AcDbArc
 50
209.999523
 51
223.952808
  0
ARC
  5
36C
100
AcDbEntity
  8
L
  6
DIVIDE
 62
     4
100
AcDbCircle
 10
-206.669300
 20
-206.481193
 40
34.367621
100
AcDbArc
 50
194.095030
 51
209.999523
  0
LINE
  5
36D
100
AcDbEntity
  8
L
  6
DIVIDE
 62
     4
100
AcDbLine
 10
-231.410950
 20
-230.334575
 11
-231.896660
 21
-231.175850
  0
LINE
  5
36E
100
AcDbEntity
  8
L
  6
CONTINUOUS
 62
     2
100
AcDbLine
 10
-215.442180
 20
-240.675850
 11
-214.956530
 21
-239.834680
  0
LINE
  5
36F
100
AcDbEntity
  8
L
  6
DIVIDE
 62
     4
100
AcDbLine
 10
-231.896660
 20
-231.175850
 11
-215.442180
 21
-240.675850
  0
LINE
  5
370
100
AcDbEntity
  8
L
  6
DIVIDE
 62
     4
100
AcDbLine
 10
-265.169435
 20
78.519025
 11
122.830555
 21
78.519025
  0
ARC
  5
371
100
AcDbEntity
  8
L
  6
DIVIDE
 62
     4
100
AcDbCircle
 10
-265.169435
 20
68.519025
 40
10.000000
100
AcDbArc
 50
90.000003
 51
180.000000
  0
ARC
  5
372
100
AcDbEntity
  8
L
  6
DIVIDE
 62
     4
100
AcDbCircle
 10
122.830555
 20
68.519025
 40
10.000000
100
AcDbArc
 50
360.000000
 51
90.000003
  0
LINE
  5
373
100
AcDbEntity
  8
L
  6
DIVIDE
 62
     4
100
AcDbLine
 10
-275.169435
 20
68.519025
 11
-275.169430
 21
-15.980980
  0
ARC
  5
374
100
AcDbEntity
  8
L
  6
DIVIDE
 62
     4
100
AcDbCircle
 10
-265.169431
 20
-15.980980
 40
10.000000
100
AcDbArc
 50
180.000000
 51
270.000003
  0
LINE
  5
375
100
AcDbEntity
  8
L
  6
DIVIDE
 62
     4
100
AcDbLine
 10
-265.169430
 20
-25.980980
 11
-249.569430
 21
-25.980980
  0
LINE
  5
376
100
AcDbEntity
  8
L
  6
DIVIDE
 62
     4
100
AcDbLine
 10
120.700535
 20
-25.980985
 11
122.830560
 21
-25.980980
  0
ARC
  5
377
100
AcDbEntity
  8
L
  6
DIVIDE
 62
     4
100
AcDbCircle
 10
122.830559
 20
-15.980980
 40
10.000001
100
AcDbArc
 50
270.000003
 51
0.000000
  0
LINE
  5
378
100
AcDbEntity
  8
L
  6
DIVIDE
 62
     4
100
AcDbLine
 10
132.830560
 20
-15.980980
 11
132.830555
 21
68.519025
  0
LINE
  5
379
100
AcDbEntity
  8
L
  6
DIVIDE
 62
     4
100
AcDbLine
 10
-273.069430
 20
-168.427850
 11
-273.069430
 21
-96.180980
  0
ARC
  5
37A
100
AcDbEntity
  8
L
  6
DIVIDE
 62
     4
100
AcDbCircle
 10
-265.069430
 20
-168.427850
 40
8.000002
100
AcDbArc
 50
179.999999
 51
237.104874
  0
LINE
  5
37B
100
AcDbEntity
  8
L
  6
DIVIDE
 62
     4
100
AcDbLine
 10
-249.569430
 20
-25.980980
 11
-249.569430
 21
-28.671720
  0
ARC
  5
37C
100
AcDbEntity
  8
L
  6
DIVIDE
 62
     4
100
AcDbCircle
 10
-203.569436
 20
-84.180983
 40
72.499994
100
AcDbArc
 50
185.339003
 51
189.190771
  0
LINE
  5
37D
100
AcDbEntity
  8
L
  6
DIVIDE
 62
     4
100
AcDbLine
 10
-274.645095
 20
-96.180980
 11
-273.069430
 21
-96.180980
  0
ARC
  5
37E
100
AcDbEntity
  8
L
  6
DIVIDE
 62
     4
100
AcDbCircle
 10
-274.645100
 20
-95.680983
 40
0.499994
100
AcDbArc
 50
189.190432
 51
270.000532
  0
LINE
  5
37F
100
AcDbEntity
  8
L
  6
DIVIDE
 62
     4
100
AcDbLine
 10
-256.994775
 20
-43.783755
 11
-254.169430
 21
-41.956300
  0
LINE
  5
380
100
AcDbEntity
  8
L
  6
DIVIDE
 62
     4
100
AcDbLine
 10
-269.414255
 20
-175.145180
 11
-260.391705
 21
-180.981040
  0
ARC
  5
381
100
AcDbEntity
  8
L
  6
DIVIDE
 62
     4
100
AcDbCircle
 10
-263.980045
 20
-68.308355
 40
25.500000
100
AcDbArc
 50
74.101612
 51
242.499340
  0
LINE
  5
382
100
AcDbEntity
  8
L
  6
DIVIDE
 62
     4
100
AcDbLine
 10
10.180555
 20
-259.280950
 11
35.530555
 21
-259.280950
  0
LINE
  5
383
100
AcDbEntity
  8
L
  6
DIVIDE
 62
     4
100
AcDbLine
 10
37.830560
 20
-254.480935
 11
37.830555
 21
-256.980970
  0
LINE
  5
384
100
AcDbEntity
  8
L
  6
DIVIDE
 62
     4
100
AcDbLine
 10
9.680555
 20
-259.780950
 11
9.680550
 21
-261.282940
  0
ARC
  5
385
100
AcDbEntity
  8
L
  6
DIVIDE
 62
     4
100
AcDbCircle
 10
10.180565
 20
-259.780956
 40
0.500006
100
AcDbArc
 50
90.001701
 51
179.999323
  0
ARC
  5
386
100
AcDbEntity
  8
L
  6
DIVIDE
 62
     4
100
AcDbCircle
 10
8.680565
 20
-261.282948
 40
0.999992
100
AcDbArc
 50
270.000009
 51
0.000477
  0
LINE
  5
387
100
AcDbEntity
  8
L
  6
DIVIDE
 62
     4
100
AcDbLine
 10
35.530560
 20
-259.280950
 11
37.830555
 21
-256.980970
  0
LINE
  5
388
100
AcDbEntity
  8
L
  6
DIVIDE
 62
     4
100
AcDbLine
 10
120.700540
 20
-28.185715
 11
120.700530
 21
-25.980990
  0
LINE
  5
389
100
AcDbEntity
  8
L
  6
DIVIDE
 62
     4
100
AcDbLine
 10
120.700535
 20
-25.980990
 11
122.830540
 21
-25.980990
  0
ARC
  5
38A
100
AcDbEntity
  8
L
  6
DIVIDE
 62
     4
100
AcDbCircle
 10
110.830561
 20
-39.480969
 40
14.999975
100
AcDbArc
 50
359.999920
 51
48.852505
  0
LINE
  5
38B
100
AcDbEntity
  8
L
  6
DIVIDE
 62
     4
100
AcDbLine
 10
125.830550
 20
-59.480990
 11
125.830545
 21
-39.480990
  0
ARC
  5
38C
100
AcDbEntity
  8
L
  6
DIVIDE
 62
     4
100
AcDbCircle
 10
89.830561
 20
-59.480969
 40
35.999988
100
AcDbArc
 50
346.807810
 51
359.999967
  0
LINE
  5
38D
100
AcDbEntity
  8
L
  6
DIVIDE
 62
     4
100
AcDbLine
 10
123.130560
 20
-175.230960
 11
123.130545
 21
-87.980935
  0
ARC
  5
38E
100
AcDbEntity
  8
L
  6
DIVIDE
 62
     4
100
AcDbCircle
 10
72.130568
 20
-257.480957
 40
3.000007
100
AcDbArc
 50
90.000255
 51
179.999860
  0
LINE
  5
38F
100
AcDbEntity
  8
L
  6
DIVIDE
 62
     4
100
AcDbLine
 10
72.130555
 20
-254.480950
 11
105.130565
 21
-254.480935
  0
ARC
  5
390
100
AcDbEntity
  8
L
  6
DIVIDE
 62
     4
100
AcDbCircle
 10
112.090218
 20
-255.230947
 40
1.999993
100
AcDbArc
 50
90.000362
 51
110.364271
  0
LINE
  5
391
100
AcDbEntity
  8
L
  6
DIVIDE
 62
     4
100
AcDbLine
 10
69.130570
 20
-262.480950
 11
69.130550
 21
-257.480950
  0
LINE
  5
392
100
AcDbEntity
  8
L
  6
DIVIDE
 62
     4
100
AcDbLine
 10
68.130565
 20
-262.480950
 11
69.130565
 21
-262.480950
  0
LINE
  5
393
100
AcDbEntity
  8
L
  6
DIVIDE
 62
     4
100
AcDbLine
 10
129.130565
 20
-177.230960
 11
125.130555
 21
-177.230960
  0
ARC
  5
394
100
AcDbEntity
  8
L
  6
DIVIDE
 62
     4
100
AcDbCircle
 10
125.130567
 20
-175.230947
 40
2.000012
100
AcDbArc
 50
180.000371
 51
269.999648
  0
LINE
  5
395
100
AcDbEntity
  8
L
  6
DIVIDE
 62
     4
100
AcDbLine
 10
67.130570
 20
-262.480955
 11
68.130560
 21
-262.480950
  0
ARC
  5
396
100
AcDbEntity
  8
L
  6
DIVIDE
 62
     4
100
AcDbCircle
 10
125.130573
 20
-221.730947
 40
2.000011
100
AcDbArc
 50
180.000371
 51
250.528698
  0
LINE
  5
397
100
AcDbEntity
  8
L
  6
DIVIDE
 62
     4
100
AcDbLine
 10
127.130565
 20
-249.230960
 11
127.130560
 21
-227.387815
  0
LINE
  5
398
100
AcDbEntity
  8
L
  6
DIVIDE
 62
     4
100
AcDbLine
 10
123.130565
 20
-253.230960
 11
112.090205
 21
-253.230960
  0
ARC
  5
399
100
AcDbEntity
  8
L
  6
DIVIDE
 62
     4
100
AcDbCircle
 10
123.130573
 20
-249.230947
 40
3.999992
100
AcDbArc
 50
269.999811
 51
359.999814
  0
ARC
  5
39A
100
AcDbEntity
  8
L
  6
DIVIDE
 62
     4
100
AcDbCircle
 10
123.130572
 20
-227.387801
 40
3.999988
100
AcDbArc
 50
359.999799
 51
70.528781
  0
LINE
  5
39B
100
AcDbEntity
  8
L
  6
DIVIDE
 62
     4
100
AcDbLine
 10
129.130570
 20
-219.730960
 11
125.130555
 21
-219.730960
  0
ARC
  5
39C
100
AcDbEntity
  8
L
  6
DIVIDE
 62
     4
100
AcDbCircle
 10
125.130569
 20
-221.730947
 40
1.999987
100
AcDbArc
 50
90.000406
 51
180.000371
  0
LINE
  5
39D
100
AcDbEntity
  8
L
  6
DIVIDE
 62
     4
100
AcDbLine
 10
173.162300
 20
-179.480945
 11
131.380520
 21
-179.480945
  0
LINE
  5
39E
100
AcDbEntity
  8
L
  6
DIVIDE
 62
     4
100
AcDbLine
 10
173.162300
 20
-217.480945
 11
173.162295
 21
-179.480945
  0
LINE
  5
39F
100
AcDbEntity
  8
L
  6
DIVIDE
 62
     4
100
AcDbLine
 10
131.380530
 20
-217.480945
 11
173.162295
 21
-217.480940
  0
LINE
  5
3A0
100
AcDbEntity
  8
L
  6
DIVIDE
 62
     4
100
AcDbLine
 10
129.130520
 20
-219.730950
 11
131.380525
 21
-217.480940
  0
LINE
  5
3A1
100
AcDbEntity
  8
L
  6
DIVIDE
 62
     4
100
AcDbLine
 10
129.130545
 20
-177.230960
 11
131.380520
 21
-179.480940
  0
LINE
  5
3A2
100
AcDbEntity
  8
L
  6
DIVIDE
 62
     4
100
AcDbLine
 10
62.130535
 20
-254.480955
 11
60.630555
 21
-254.480955
  0
LINE
  5
3A3
100
AcDbEntity
  8
L
  6
DIVIDE
 62
     4
100
AcDbLine
 10
39.630565
 20
-254.480955
 11
37.830555
 21
-254.480935
  0
ARC
  5
3A4
100
AcDbEntity
  8
L
  6
DIVIDE
 62
     4
100
AcDbCircle
 10
62.130592
 20
-257.480977
 40
3.000022
100
AcDbArc
 50
0.000429
 51
90.001091
  0
LINE
  5
3A5
100
AcDbEntity
  8
L
  6
DIVIDE
 62
     4
100
AcDbLine
 10
65.130535
 20
-257.480955
 11
65.130545
 21
-262.480960
  0
LINE
  5
3A6
100
AcDbEntity
  8
L
  6
DIVIDE
 62
     4
100
AcDbLine
 10
65.130550
 20
-262.480960
 11
67.130535
 21
-262.480950
  0
LINE
  5
3A7
100
AcDbEntity
  8
L
  6
DIVIDE
 62
     4
100
AcDbLine
 10
60.630560
 20
-254.480955
 11
60.630555
 21
-260.480950
  0
LINE
  5
3A8
100
AcDbEntity
  8
L
  6
DIVIDE
 62
     4
100
AcDbLine
 10
39.630565
 20
-260.480945
 11
39.630560
 21
-254.480955
  0
LINE
  5
3A9
100
AcDbEntity
  8
L
  6
DIVIDE
 62
     4
100
AcDbLine
 10
39.630565
 20
-260.480945
 11
45.130555
 21
-260.480945
  0
LINE
  5
3AA
100
AcDbEntity
  8
L
  6
DIVIDE
 62
     4
100
AcDbLine
 10
55.130560
 20
-260.480945
 11
60.630555
 21
-260.480950
  0
LINE
  5
3AB
100
AcDbEntity
  8
L
  6
DIVIDE
 62
     4
100
AcDbLine
 10
45.130560
 20
-260.480950
 11
45.130555
 21
-264.980965
  0
LINE
  5
3AC
100
AcDbEntity
  8
L
  6
DIVIDE
 62
     4
100
AcDbLine
 10
45.130555
 20
-264.980965
 11
55.130555
 21
-264.980965
  0
LINE
  5
3AD
100
AcDbEntity
  8
L
  6
DIVIDE
 62
     4
100
AcDbLine
 10
55.130555
 20
-264.980965
 11
55.130555
 21
-264.534380
  0
LINE
  5
3AE
100
AcDbEntity
  8
L
  6
DIVIDE
 62
     4
100
AcDbLine
 10
55.130560
 20
-260.927530
 11
55.130555
 21
-260.480950
  0
LINE
  5
3AF
100
AcDbEntity
  8
L
  6
DIVIDE
 62
     4
100
AcDbLine
 10
55.130560
 20
-260.927530
 11
55.130555
 21
-264.534380
  0
LINE
  5
3B0
100
AcDbEntity
  8
L
  6
DIVIDE
 62
     4
100
AcDbLine
 10
124.880520
 20
-82.480940
 11
129.130515
 21
-82.480940
  0
LINE
  5
3B1
100
AcDbEntity
  8
L
  6
DIVIDE
 62
     4
100
AcDbLine
 10
129.130515
 20
-82.480940
 11
129.130515
 21
-72.480940
  0
LINE
  5
3B2
100
AcDbEntity
  8
L
  6
DIVIDE
 62
     4
100
AcDbLine
 10
129.130515
 20
-72.480940
 11
128.683935
 21
-72.480940
  0
LINE
  5
3B3
100
AcDbEntity
  8
L
  6
DIVIDE
 62
     4
100
AcDbLine
 10
124.880520
 20
-72.480940
 11
128.683935
 21
-72.480940
  0
LINE
  5
3B4
100
AcDbEntity
  8
L
  6
DIVIDE
 62
     4
100
AcDbLine
 10
123.130550
 20
-87.980935
 11
124.880515
 21
-87.980935
  0
LINE
  5
3B5
100
AcDbEntity
  8
L
  6
DIVIDE
 62
     4
100
AcDbLine
 10
124.880520
 20
-87.980935
 11
124.880515
 21
-82.480940
  0
LINE
  5
3B6
100
AcDbEntity
  8
L
  6
DIVIDE
 62
     4
100
AcDbLine
 10
124.880520
 20
-72.480940
 11
124.880510
 21
-67.696820
  0
ARC
  5
3B7
100
AcDbEntity
  8
L
  6
DIVIDE
 62
     4
100
AcDbCircle
 10
105.130575
 20
-236.480924
 40
18.000008
100
AcDbArc
 50
269.999967
 51
290.363920
  0
TEXT
  5
3B8
100
AcDbEntity
  8
L
 62
     1
100
AcDbText
 10
-73.631160
 20
96.338675
 30
0.000000
 40
10.000000
  1
schs
 50
90.000000
 41
0.899183
 51
0.000000
  7
TXT8
 72
     1
 11
-78.631160
 21
112.838675
 31
0.000000
100
AcDbText
 73
     2
  0
ENDBLK
  5
3B9
100
AcDbEntity
  8
0
100
AcDbBlockEnd
  0
BLOCK
  5
3BA
100
AcDbEntity
  8
L
100
AcDbBlockBegin
  2
B-8
 70
    66
 10
0.000000
 20
0.000000
 30
0.000000
  0
LINE
  5
3BB
100
AcDbEntity
  8
L
  6
BORDER
 62
     4
100
AcDbLine
 10
72.830565
 20
-129.980975
 11
72.830565
 21
-108.980975
  0
ARC
  5
3BC
100
AcDbEntity
  8
L
  6
CONTINUOUS
 62
     2
100
AcDbCircle
 10
-64.169437
 20
-72.480972
 40
8.999991
100
AcDbArc
 50
134.415309
 51
151.563134
  0
LINE
  5
3BD
100
AcDbEntity
  8
L
  6
CONTINUOUS
 62
     2
100
AcDbLine
 10
-64.169435
 20
-65.480980
 11
-69.068410
 21
-65.480980
  0
ARC
  5
3BE
100
AcDbEntity
  8
L
  6
CONTINUOUS
 62
     2
100
AcDbCircle
 10
-69.068416
 20
-67.480972
 40
1.999993
100
AcDbArc
 50
89.999826
 51
134.415311
  0
LINE
  5
3BF
100
AcDbEntity
  8
L
  6
CONTINUOUS
 62
     2
100
AcDbLine
 10
-82.635615
 20
-74.480980
 11
-113.703245
 21
-74.480980
  0
ARC
  5
3C0
100
AcDbEntity
  8
L
  6
CONTINUOUS
 62
     2
100
AcDbCircle
 10
-113.703251
 20
-62.480972
 40
12.000008
100
AcDbArc
 50
208.436927
 51
270.000030
  0
ARC
  5
3C1
100
AcDbEntity
  8
L
  6
CONTINUOUS
 62
     2
100
AcDbCircle
 10
-82.635622
 20
-62.480972
 40
12.000009
100
AcDbArc
 50
270.000033
 51
331.563092
  0
LINE
  5
3C2
100
AcDbEntity
  8
L
  6
CONTINUOUS
 62
     2
100
AcDbLine
 10
-127.270455
 20
-65.480980
 11
-137.068410
 21
-65.480980
  0
ARC
  5
3C3
100
AcDbEntity
  8
L
  6
CONTINUOUS
 62
     2
100
AcDbCircle
 10
-137.068416
 20
-67.480972
 40
1.999993
100
AcDbArc
 50
89.999826
 51
134.415311
  0
ARC
  5
3C4
100
AcDbEntity
  8
L
  6
CONTINUOUS
 62
     2
100
AcDbCircle
 10
-132.169437
 20
-72.480972
 40
8.999999
100
AcDbArc
 50
28.436841
 51
45.584654
  0
ARC
  5
3C5
100
AcDbEntity
  8
L
  6
CONTINUOUS
 62
     2
100
AcDbCircle
 10
-127.270457
 20
-67.480972
 40
1.999999
100
AcDbArc
 50
45.584522
 51
89.999940
  0
LINE
  5
3C6
100
AcDbEntity
  8
L
  6
CONTINUOUS
 62
     2
100
AcDbLine
 10
-146.866370
 20
-69.480980
 11
-178.843530
 21
-69.480980
  0
ARC
  5
3C7
100
AcDbEntity
  8
L
  6
CONTINUOUS
 62
     2
100
AcDbCircle
 10
-146.866375
 20
-57.480972
 40
12.000007
100
AcDbArc
 50
270.000024
 51
314.415308
  0
LINE
  5
3C8
100
AcDbEntity
  8
L
  6
CONTINUOUS
 62
     2
100
AcDbLine
 10
-228.562830
 20
-28.874375
 11
-194.399880
 21
-63.037325
  0
ARC
  5
3C9
100
AcDbEntity
  8
L
  6
CONTINUOUS
 62
     2
100
AcDbCircle
 10
-178.843534
 20
-47.480972
 40
22.000000
100
AcDbArc
 50
225.000014
 51
270.000011
  0
ARC
  5
3CA
100
AcDbEntity
  8
L
  6
CONTINUOUS
 62
     2
100
AcDbCircle
 10
-239.169437
 20
-39.480972
 40
15.000000
100
AcDbArc
 50
44.999973
 51
180.000032
  0
LINE
  5
3CB
100
AcDbEntity
  8
L
  6
CONTINUOUS
 62
     2
100
AcDbLine
 10
-254.169430
 20
-59.480980
 11
-254.169430
 21
-39.480980
  0
ARC
  5
3CC
100
AcDbEntity
  8
L
  6
CONTINUOUS
 62
     2
100
AcDbCircle
 10
-218.169437
 20
-59.480972
 40
35.999993
100
AcDbArc
 50
180.000013
 51
203.965100
  0
ARC
  5
3CD
100
AcDbEntity
  8
L
  6
CONTINUOUS
 62
     2
100
AcDbCircle
 10
-271.169437
 20
-83.039410
 40
22.000007
100
AcDbArc
 50
359.999986
 51
23.965077
  0
LINE
  5
3CE
100
AcDbEntity
  8
L
  6
CONTINUOUS
 62
     2
100
AcDbLine
 10
-249.169430
 20
-180.906795
 11
-249.169430
 21
-83.039415
  0
ARC
  5
3CF
100
AcDbEntity
  8
L
  6
CONTINUOUS
 62
     2
100
AcDbCircle
 10
-271.169437
 20
-180.906796
 40
22.000004
100
AcDbArc
 50
329.867285
 51
0.000003
  0
CIRCLE
  5
3D0
100
AcDbEntity
  8
L
  6
CONTINUOUS
 62
     2
100
AcDbCircle
 10
-239.169437
 20
-39.480972
 40
6.500007
  0
LINE
  5
3D1
100
AcDbEntity
  8
L
  6
BORDER
 62
     4
100
AcDbLine
 10
-258.169430
 20
-39.480980
 11
-224.169430
 21
-39.480980
  0
LINE
  5
3D2
100
AcDbEntity
  8
L
  6
BORDER
 62
     4
100
AcDbLine
 10
-239.169430
 20
-54.480980
 11
-239.169430
 21
-20.480980
  0
LINE
  5
3D3
100
AcDbEntity
  8
L
  6
BORDER
 62
     4
100
AcDbLine
 10
-236.669430
 20
-82.980980
 11
-236.669430
 21
-61.980980
  0
LINE
  5
3D4
100
AcDbEntity
  8
L
  6
BORDER
 62
     4
100
AcDbLine
 10
-247.169430
 20
-72.480980
 11
-226.169430
 21
-72.480980
  0
LINE
  5
3D5
100
AcDbEntity
  8
L
  6
BORDER
 62
     4
100
AcDbLine
 10
-201.169430
 20
-82.980980
 11
-201.169430
 21
-61.980980
  0
LINE
  5
3D6
100
AcDbEntity
  8
L
  6
BORDER
 62
     4
100
AcDbLine
 10
-211.669430
 20
-72.480980
 11
-190.669430
 21
-72.480980
  0
LINE
  5
3D7
100
AcDbEntity
  8
L
  6
BORDER
 62
     4
100
AcDbLine
 10
-132.169430
 20
-78.980980
 11
-132.169430
 21
-65.980980
  0
LINE
  5
3D8
100
AcDbEntity
  8
L
  6
BORDER
 62
     4
100
AcDbLine
 10
-138.669430
 20
-72.480980
 11
-125.669430
 21
-72.480980
  0
LINE
  5
3D9
100
AcDbEntity
  8
L
  6
BORDER
 62
     4
100
AcDbLine
 10
-70.669430
 20
-72.480980
 11
-64.169435
 21
-72.480980
  0
LINE
  5
3DA
100
AcDbEntity
  8
L
  6
BORDER
 62
     4
100
AcDbLine
 10
-249.669430
 20
-103.480980
 11
-228.669430
 21
-103.480980
  0
LINE
  5
3DB
100
AcDbEntity
  8
L
  6
BORDER
 62
     4
100
AcDbLine
 10
-239.169430
 20
-113.980980
 11
-239.169430
 21
-92.980980
  0
LINE
  5
3DC
100
AcDbEntity
  8
L
  6
BORDER
 62
     4
100
AcDbLine
 10
-225.669430
 20
-103.480980
 11
-204.669430
 21
-103.480980
  0
LINE
  5
3DD
100
AcDbEntity
  8
L
  6
BORDER
 62
     4
100
AcDbLine
 10
-215.169430
 20
-113.980980
 11
-215.169430
 21
-92.980980
  0
LINE
  5
3DE
100
AcDbEntity
  8
L
  6
BORDER
 62
     4
100
AcDbLine
 10
-249.669430
 20
-162.480970
 11
-228.669430
 21
-162.480970
  0
LINE
  5
3DF
100
AcDbEntity
  8
L
  6
BORDER
 62
     4
100
AcDbLine
 10
-239.169430
 20
-172.980970
 11
-239.169430
 21
-151.980970
  0
CIRCLE
  5
3E0
100
AcDbEntity
  8
L
  6
CONTINUOUS
 62
     2
100
AcDbCircle
 10
-239.169437
 20
-199.480972
 40
6.500007
  0
LINE
  5
3E1
100
AcDbEntity
  8
L
  6
BORDER
 62
     4
100
AcDbLine
 10
-239.169430
 20
-221.542250
 11
-239.169430
 21
-180.480970
  0
LINE
  5
3E2
100
AcDbEntity
  8
L
  6
BORDER
 62
     4
100
AcDbLine
 10
-258.169430
 20
-199.480970
 11
-224.169430
 21
-199.480970
  0
LINE
  5
3E3
100
AcDbEntity
  8
L
  6
CONTINUOUS
 62
     2
100
AcDbLine
 10
-128.532720
 20
-245.352550
 11
-155.130075
 21
-230.609395
  0
ARC
  5
3E4
100
AcDbEntity
  8
L
  6
CONTINUOUS
 62
     2
100
AcDbCircle
 10
-159.493368
 20
-238.480972
 40
9.000002
100
AcDbArc
 50
60.999964
 51
89.999982
  0
ARC
  5
3E5
100
AcDbEntity
  8
L
  6
CONTINUOUS
 62
     2
100
AcDbCircle
 10
-124.169437
 20
-237.480972
 40
8.999998
100
AcDbArc
 50
241.000020
 51
270.000042
  0
LINE
  5
3E6
100
AcDbEntity
  8
L
  6
CONTINUOUS
 62
     2
100
AcDbLine
 10
-187.930145
 20
-229.480970
 11
-159.493365
 21
-229.480970
  0
ARC
  5
3E7
100
AcDbEntity
  8
L
  6
CONTINUOUS
 62
     2
100
AcDbCircle
 10
-187.930151
 20
-220.480972
 40
8.999999
100
AcDbArc
 50
253.934403
 51
270.000038
  0
LINE
  5
3E8
100
AcDbEntity
  8
L
  6
CONTINUOUS
 62
     2
100
AcDbLine
 10
-243.320500
 20
-213.895155
 11
-190.420790
 21
-229.129480
  0
ARC
  5
3E9
100
AcDbEntity
  8
L
  6
CONTINUOUS
 62
     2
100
AcDbCircle
 10
-239.169437
 20
-199.480972
 40
15.000000
100
AcDbArc
 50
149.867268
 51
253.934412
  0
LINE
  5
3EA
100
AcDbEntity
  8
L
  6
CONTINUOUS
 62
     2
100
AcDbLine
 10
-124.169430
 20
-246.480970
 11
-4.169435
 21
-246.480970
  0
LINE
  5
3EB
100
AcDbEntity
  8
L
  6
CONTINUOUS
 62
     2
100
AcDbLine
 10
114.981630
 20
-213.895155
 11
62.081920
 21
-229.129480
  0
LINE
  5
3EC
100
AcDbEntity
  8
L
  6
CONTINUOUS
 62
     2
100
AcDbLine
 10
0.193850
 20
-245.352550
 11
26.791210
 21
-230.609395
  0
ARC
  5
3ED
100
AcDbEntity
  8
L
  6
CONTINUOUS
 62
     2
100
AcDbCircle
 10
31.154495
 20
-238.480972
 40
9.000002
100
AcDbArc
 50
89.999997
 51
118.999991
  0
ARC
  5
3EE
100
AcDbEntity
  8
L
  6
CONTINUOUS
 62
     2
100
AcDbCircle
 10
-4.169437
 20
-237.480972
 40
8.999998
100
AcDbArc
 50
270.000010
 51
298.999997
  0
LINE
  5
3EF
100
AcDbEntity
  8
L
  6
CONTINUOUS
 62
     2
100
AcDbLine
 10
59.591275
 20
-229.480970
 11
31.154495
 21
-229.480970
  0
ARC
  5
3F0
100
AcDbEntity
  8
L
  6
CONTINUOUS
 62
     2
100
AcDbCircle
 10
59.591278
 20
-220.480972
 40
9.000000
100
AcDbArc
 50
269.999983
 51
286.065617
  0
ARC
  5
3F1
100
AcDbEntity
  8
L
  6
CONTINUOUS
 62
     2
100
AcDbCircle
 10
-64.169437
 20
-72.480972
 40
8.999994
100
AcDbArc
 50
28.436856
 51
45.584676
  0
LINE
  5
3F2
100
AcDbEntity
  8
L
  6
CONTINUOUS
 62
     2
100
AcDbLine
 10
-64.169435
 20
-65.480980
 11
-59.270460
 21
-65.480980
  0
ARC
  5
3F3
100
AcDbEntity
  8
L
  6
CONTINUOUS
 62
     2
100
AcDbCircle
 10
-59.270457
 20
-67.480972
 40
1.999996
100
AcDbArc
 50
45.584624
 51
90.000083
  0
LINE
  5
3F4
100
AcDbEntity
  8
L
  6
CONTINUOUS
 62
     2
100
AcDbLine
 10
-45.703250
 20
-74.480980
 11
-14.635620
 21
-74.480980
  0
ARC
  5
3F5
100
AcDbEntity
  8
L
  6
CONTINUOUS
 62
     2
100
AcDbCircle
 10
-14.635622
 20
-62.480972
 40
12.000004
100
AcDbArc
 50
270.000009
 51
331.563080
  0
ARC
  5
3F6
100
AcDbEntity
  8
L
  6
CONTINUOUS
 62
     2
100
AcDbCircle
 10
-45.703251
 20
-62.480972
 40
12.000006
100
AcDbArc
 50
208.436915
 51
270.000006
  0
LINE
  5
3F7
100
AcDbEntity
  8
L
  6
CONTINUOUS
 62
     2
100
AcDbLine
 10
-1.068415
 20
-65.480980
 11
8.729540
 21
-65.480980
  0
ARC
  5
3F8
100
AcDbEntity
  8
L
  6
CONTINUOUS
 62
     2
100
AcDbCircle
 10
8.729543
 20
-67.480972
 40
1.999996
100
AcDbArc
 50
45.584624
 51
90.000083
  0
ARC
  5
3F9
100
AcDbEntity
  8
L
  6
CONTINUOUS
 62
     2
100
AcDbCircle
 10
3.830563
 20
-72.480972
 40
8.999997
100
AcDbArc
 50
134.415332
 51
151.563149
  0
ARC
  5
3FA
100
AcDbEntity
  8
L
  6
CONTINUOUS
 62
     2
100
AcDbCircle
 10
-1.068416
 20
-67.480972
 40
1.999992
100
AcDbArc
 50
89.999969
 51
134.415413
  0
LINE
  5
3FB
100
AcDbEntity
  8
L
  6
CONTINUOUS
 62
     2
100
AcDbLine
 10
18.527500
 20
-69.480980
 11
50.504660
 21
-69.480980
  0
ARC
  5
3FC
100
AcDbEntity
  8
L
  6
CONTINUOUS
 62
     2
100
AcDbCircle
 10
18.527502
 20
-57.480972
 40
12.000004
100
AcDbArc
 50
225.584703
 51
269.999991
  0
LINE
  5
3FD
100
AcDbEntity
  8
L
  6
CONTINUOUS
 62
     2
100
AcDbLine
 10
100.223960
 20
-28.874375
 11
66.061010
 21
-63.037325
  0
ARC
  5
3FE
100
AcDbEntity
  8
L
  6
CONTINUOUS
 62
     2
100
AcDbCircle
 10
50.504661
 20
-47.480972
 40
22.000003
100
AcDbArc
 50
269.999997
 51
314.999992
  0
ARC
  5
3FF
100
AcDbEntity
  8
L
  6
CONTINUOUS
 62
     2
100
AcDbCircle
 10
110.830563
 20
-39.480972
 40
14.999997
100
AcDbArc
 50
359.999968
 51
135.000018
  0
LINE
  5
400
100
AcDbEntity
  8
L
  6
CONTINUOUS
 62
     2
100
AcDbLine
 10
125.830560
 20
-59.480980
 11
125.830560
 21
-39.480980
  0
CIRCLE
  5
401
100
AcDbEntity
  8
L
  6
CONTINUOUS
 62
     2
100
AcDbCircle
 10
110.830563
 20
-39.480972
 40
6.500003
  0
LINE
  5
402
100
AcDbEntity
  8
L
  6
BORDER
 62
     4
100
AcDbLine
 10
135.776435
 20
-39.480980
 11
95.830560
 21
-39.480980
  0
LINE
  5
403
100
AcDbEntity
  8
L
  6
BORDER
 62
     4
100
AcDbLine
 10
110.830560
 20
-54.480980
 11
110.830560
 21
-20.480980
  0
LINE
  5
404
100
AcDbEntity
  8
L
  6
BORDER
 62
     4
100
AcDbLine
 10
108.330560
 20
-82.980980
 11
108.330560
 21
-61.980980
  0
LINE
  5
405
100
AcDbEntity
  8
L
  6
BORDER
 62
     4
100
AcDbLine
 10
118.830560
 20
-72.480980
 11
97.830560
 21
-72.480980
  0
LINE
  5
406
100
AcDbEntity
  8
L
  6
BORDER
 62
     4
100
AcDbLine
 10
72.830560
 20
-82.980980
 11
72.830560
 21
-61.980980
  0
LINE
  5
407
100
AcDbEntity
  8
L
  6
BORDER
 62
     4
100
AcDbLine
 10
83.330560
 20
-72.480980
 11
62.330560
 21
-72.480980
  0
LINE
  5
408
100
AcDbEntity
  8
L
  6
BORDER
 62
     4
100
AcDbLine
 10
3.830565
 20
-78.980980
 11
3.830565
 21
-65.980980
  0
LINE
  5
409
100
AcDbEntity
  8
L
  6
BORDER
 62
     4
100
AcDbLine
 10
10.330565
 20
-72.480980
 11
-2.669435
 21
-72.480980
  0
LINE
  5
40A
100
AcDbEntity
  8
L
  6
BORDER
 62
     4
100
AcDbLine
 10
-57.669435
 20
-72.480980
 11
-64.169435
 21
-72.480980
  0
CIRCLE
  5
40B
100
AcDbEntity
  8
L
  6
CONTINUOUS
 62
     2
100
AcDbCircle
 10
110.830563
 20
-199.480972
 40
6.500003
  0
LINE
  5
40C
100
AcDbEntity
  8
L
  6
BORDER
 62
     4
100
AcDbLine
 10
110.830560
 20
-221.542250
 11
110.830560
 21
-180.480970
  0
LINE
  5
40D
100
AcDbEntity
  8
L
  6
BORDER
 62
     4
100
AcDbLine
 10
129.830560
 20
-199.480970
 11
95.830560
 21
-199.480970
  0
LINE
  5
40E
100
AcDbEntity
  8
L
  6
BORDER
 62
     4
100
AcDbLine
 10
72.830565
 20
-174.980975
 11
72.830565
 21
-153.980975
  0
LINE
  5
40F
100
AcDbEntity
  8
L
  6
BORDER
 62
     4
100
AcDbLine
 10
81.593390
 20
-164.480975
 11
62.330565
 21
-164.480975
  0
LINE
  5
410
100
AcDbEntity
  8
L
  6
BORDER
 62
     4
100
AcDbLine
 10
46.830565
 20
-230.980975
 11
46.830565
 21
-209.980975
  0
LINE
  5
411
100
AcDbEntity
  8
L
  6
BORDER
 62
     4
100
AcDbLine
 10
57.330565
 20
-220.480975
 11
36.330565
 21
-220.480975
  0
LINE
  5
412
100
AcDbEntity
  8
L
  6
BORDER
 62
     4
100
AcDbLine
 10
-175.169435
 20
-230.980975
 11
-175.169435
 21
-209.980975
  0
LINE
  5
413
100
AcDbEntity
  8
L
  6
BORDER
 62
     4
100
AcDbLine
 10
-164.669435
 20
-220.480975
 11
-185.669435
 21
-220.480975
  0
CIRCLE
  5
414
100
AcDbEntity
  8
L
  6
CONTINUOUS
 62
     2
100
AcDbCircle
 10
-132.169436
 20
-72.480973
 40
4.500006
  0
CIRCLE
  5
415
100
AcDbEntity
  8
L
  6
CONTINUOUS
 62
     2
100
AcDbCircle
 10
3.830563
 20
-72.480973
 40
4.500002
  0
CIRCLE
  5
416
100
AcDbEntity
  8
L
  6
CONTINUOUS
 62
     2
100
AcDbCircle
 10
-64.169437
 20
-72.480973
 40
4.500002
  0
LINE
  5
417
100
AcDbEntity
  8
L
  6
BORDER
 62
     4
100
AcDbLine
 10
110.830565
 20
-171.480980
 11
91.044895
 21
-171.480980
  0
LINE
  5
418
100
AcDbEntity
  8
L
  6
BORDER
 62
     4
100
AcDbLine
 10
100.330565
 20
-181.980980
 11
100.330565
 21
-160.980980
  0
LINE
  5
419
100
AcDbEntity
  8
L
  6
BORDER
 62
     4
100
AcDbLine
 10
110.830565
 20
-138.480980
 11
89.830565
 21
-138.480980
  0
LINE
  5
41A
100
AcDbEntity
  8
L
  6
BORDER
 62
     4
100
AcDbLine
 10
100.330565
 20
-148.980980
 11
100.330565
 21
-127.980980
  0
LINE
  5
41B
100
AcDbEntity
  8
L
  6
BORDER
 62
     4
100
AcDbLine
 10
-204.169435
 20
-220.980975
 11
-204.169435
 21
-199.980975
  0
LINE
  5
41C
100
AcDbEntity
  8
L
  6
BORDER
 62
     4
100
AcDbLine
 10
-193.669435
 20
-210.480975
 11
-214.669435
 21
-210.480975
  0
LINE
  5
41D
100
AcDbEntity
  8
L
  6
BORDER
 62
     4
100
AcDbLine
 10
72.830565
 20
-215.980975
 11
72.830565
 21
-194.980975
  0
LINE
  5
41E
100
AcDbEntity
  8
L
  6
BORDER
 62
     4
100
AcDbLine
 10
83.330565
 20
-205.480975
 11
62.330565
 21
-205.480975
  0
ARC
  5
41F
100
AcDbEntity
  8
L
  6
CONTINUOUS
 62
     2
100
AcDbCircle
 10
89.830563
 20
-59.480972
 40
36.000000
100
AcDbArc
 50
317.849036
 51
0.000003
  0
ARC
  5
420
100
AcDbEntity
  8
L
  6
CONTINUOUS
 62
     2
100
AcDbCircle
 10
110.830563
 20
-199.480972
 40
15.000001
100
AcDbArc
 50
286.065600
 51
63.612201
  0
LINE
  5
421
100
AcDbEntity
  8
L
  6
CONTINUOUS
 62
     2
100
AcDbLine
 10
110.830560
 20
-98.403975
 11
110.830560
 21
-175.294195
  0
ARC
  5
422
100
AcDbEntity
  8
L
  6
CONTINUOUS
 62
     2
100
AcDbCircle
 10
122.830560
 20
-175.294197
 40
12.000000
100
AcDbArc
 50
179.999991
 51
243.612217
  0
ARC
  5
423
100
AcDbEntity
  8
L
  6
CONTINUOUS
 62
     2
100
AcDbCircle
 10
132.830560
 20
-98.403976
 40
22.000000
100
AcDbArc
 50
137.849046
 51
179.999996
  0
ENDBLK
  5
424
100
AcDbEntity
  8
0
100
AcDbBlockEnd
  0
BLOCK
  5
425
100
AcDbEntity
  8
L
100
AcDbBlockBegin
  2
B-9
 70
    66
 10
0.000000
 20
0.000000
 30
0.000000
  0
LINE
  5
426
100
AcDbEntity
  8
L
  6
DIVIDE
 62
     4
100
AcDbLine
 10
-183.169415
 20
299.467360
 11
-183.169415
 21
295.270100
  0
ARC
  5
427
100
AcDbEntity
  8
L
  6
DIVIDE
 62
     4
100
AcDbCircle
 10
-182.569415
 20
295.270100
 40
0.600000
100
AcDbArc
 50
180.000000
 51
204.907197
  0
ARC
  5
428
100
AcDbEntity
  8
L
  6
DIVIDE
 62
     4
100
AcDbCircle
 10
54.230585
 20
295.269710
 40
0.600000
100
AcDbArc
 50
270.000000
 51
0.000000
  0
LINE
  5
429
100
AcDbEntity
  8
L
  6
DIVIDE
 62
     4
100
AcDbLine
 10
54.830585
 20
295.269710
 11
54.830585
 21
299.467355
  0
LINE
  5
42A
100
AcDbEntity
  8
L
  6
DIVIDE
 62
     4
100
AcDbLine
 10
53.330580
 20
294.669735
 11
54.230585
 21
294.669735
  0
ARC
  5
42B
100
AcDbEntity
  8
L
  6
DIVIDE
 62
     4
100
AcDbCircle
 10
-55.169422
 20
438.967370
 40
173.249998
100
AcDbArc
 50
275.515420
 51
287.202198
  0
ARC
  5
42C
100
AcDbEntity
  8
L
  6
DIVIDE
 62
     4
100
AcDbCircle
 10
-55.169422
 20
438.967370
 40
173.249995
100
AcDbArc
 50
339.457313
 51
355.643331
  0
LINE
  5
42D
100
AcDbEntity
  8
L
  6
DIVIDE
 62
     4
100
AcDbLine
 10
117.579965
 20
425.806440
 11
119.763720
 21
454.470260
  0
ARC
  5
42E
100
AcDbEntity
  8
L
  6
DIVIDE
 62
     4
100
AcDbCircle
 10
-73.169422
 20
438.967370
 40
173.249998
100
AcDbArc
 50
252.797804
 51
264.484583
  0
ARC
  5
42F
100
AcDbEntity
  8
L
  6
DIVIDE
 62
     4
100
AcDbCircle
 10
-88.739826
 20
277.717370
 40
11.250000
100
AcDbArc
 50
264.484603
 51
270.000032
  0
LINE
  5
430
100
AcDbEntity
  8
L
  6
DIVIDE
 62
     4
100
AcDbLine
 10
-88.739820
 20
266.467370
 11
-39.599010
 21
266.467370
  0
ARC
  5
431
100
AcDbEntity
  8
L
  6
DIVIDE
 62
     4
100
AcDbCircle
 10
-39.599017
 20
277.717370
 40
11.249998
100
AcDbArc
 50
270.000036
 51
275.515440
  0
LINE
  5
432
100
AcDbEntity
  8
L
  6
DIVIDE
 62
     4
100
AcDbLine
 10
117.330575
 20
329.967360
 11
117.330575
 21
309.967360
  0
ARC
  5
433
100
AcDbEntity
  8
L
  6
DIVIDE
 62
     4
100
AcDbCircle
 10
108.330566
 20
329.967359
 40
9.000010
100
AcDbArc
 50
0.000007
 51
18.841710
  0
ARC
  5
434
100
AcDbEntity
  8
L
  6
DIVIDE
 62
     4
100
AcDbCircle
 10
306.131158
 20
397.464958
 40
199.999990
100
AcDbArc
 50
185.535327
 51
198.841727
  0
LINE
  5
435
100
AcDbEntity
  8
L
  6
DIVIDE
 62
     4
100
AcDbLine
 10
-248.169425
 20
309.967360
 11
-248.169425
 21
315.467360
  0
ARC
  5
436
100
AcDbEntity
  8
L
  6
DIVIDE
 62
     4
100
AcDbCircle
 10
-165.667658
 20
271.467346
 40
4.999986
100
AcDbArc
 50
191.535836
 51
270.000152
  0
LINE
  5
437
100
AcDbEntity
  8
L
  6
DIVIDE
 62
     4
100
AcDbLine
 10
-165.667645
 20
266.467355
 11
-154.167645
 21
266.467360
  0
ARC
  5
438
100
AcDbEntity
  8
L
  6
DIVIDE
 62
     4
100
AcDbCircle
 10
-154.167658
 20
270.467346
 40
4.000007
100
AcDbArc
 50
270.000190
 51
317.014139
  0
LINE
  5
439
100
AcDbEntity
  8
L
  6
DIVIDE
 62
     4
100
AcDbLine
 10
42.328815
 20
293.467355
 11
42.328810
 21
271.467360
  0
ARC
  5
43A
100
AcDbEntity
  8
L
  6
DIVIDE
 62
     4
100
AcDbCircle
 10
37.328810
 20
271.467346
 40
5.000000
100
AcDbArc
 50
270.000002
 51
0.000155
  0
LINE
  5
43B
100
AcDbEntity
  8
L
  6
DIVIDE
 62
     4
100
AcDbLine
 10
37.328815
 20
266.467355
 11
25.828810
 21
266.467360
  0
LINE
  5
43C
100
AcDbEntity
  8
L
  6
DIVIDE
 62
     4
100
AcDbLine
 10
-47.646705
 20
273.467360
 11
9.735320
 21
273.467360
  0
ARC
  5
43D
100
AcDbEntity
  8
L
  6
DIVIDE
 62
     4
100
AcDbCircle
 10
25.828810
 20
270.467346
 40
3.999986
100
AcDbArc
 50
222.985835
 51
270.000002
  0
LINE
  5
43E
100
AcDbEntity
  8
L
  6
DIVIDE
 62
     4
100
AcDbLine
 10
-187.167645
 20
299.467355
 11
-183.167645
 21
299.467360
  0
LINE
  5
43F
100
AcDbEntity
  8
L
  6
DIVIDE
 62
     4
100
AcDbLine
 10
-181.167645
 20
303.467355
 11
-184.167645
 21
303.467360
  0
LINE
  5
440
100
AcDbEntity
  8
L
  6
DIVIDE
 62
     4
100
AcDbLine
 10
-187.167645
 20
300.467355
 11
-187.167645
 21
299.467360
  0
ARC
  5
441
100
AcDbEntity
  8
L
  6
DIVIDE
 62
     4
100
AcDbCircle
 10
-184.167658
 20
300.467346
 40
2.999987
100
AcDbArc
 50
89.999746
 51
179.999837
  0
LINE
  5
442
100
AcDbEntity
  8
L
  6
DIVIDE
 62
     4
100
AcDbLine
 10
58.828815
 20
299.467355
 11
54.830585
 21
299.467355
  0
LINE
  5
443
100
AcDbEntity
  8
L
  6
DIVIDE
 62
     4
100
AcDbLine
 10
58.828815
 20
300.467355
 11
58.828810
 21
299.467360
  0
LINE
  5
444
100
AcDbEntity
  8
L
  6
DIVIDE
 62
     4
100
AcDbLine
 10
58.828815
 20
300.967355
 11
58.828810
 21
300.967360
  0
ARC
  5
445
100
AcDbEntity
  8
L
  6
DIVIDE
 62
     4
100
AcDbCircle
 10
55.828810
 20
300.467346
 40
3.000005
100
AcDbArc
 50
0.000163
 51
89.999997
  0
LINE
  5
446
100
AcDbEntity
  8
L
  6
DIVIDE
 62
     4
100
AcDbLine
 10
-64.169420
 20
266.467355
 11
-85.169425
 21
266.467360
  0
LINE
  5
447
100
AcDbEntity
  8
L
  6
DIVIDE
 62
     4
100
AcDbLine
 10
-176.667640
 20
270.967415
 11
-176.667645
 21
270.467405
  0
LINE
  5
448
100
AcDbEntity
  8
L
  6
BORDER
 62
     4
100
AcDbLine
 10
-200.667645
 20
284.467395
 11
-164.019650
 21
284.467485
  0
LINE
  5
449
100
AcDbEntity
  8
L
  6
DIVIDE
 62
     4
100
AcDbLine
 10
-176.667645
 20
270.467405
 11
-170.566645
 21
270.467445
  0
ARC
  5
44A
100
AcDbEntity
  8
L
  6
DIVIDE
 62
     4
100
AcDbCircle
 10
-85.169428
 20
284.467346
 40
17.999986
100
AcDbArc
 50
224.079161
 51
269.999994
  0
ARC
  5
44B
100
AcDbEntity
  8
L
  6
DIVIDE
 62
     4
100
AcDbCircle
 10
-85.169428
 20
284.467346
 40
18.000000
100
AcDbArc
 50
217.495266
 51
217.669833
  0
ARC
  5
44C
100
AcDbEntity
  8
L
  6
DIVIDE
 62
     4
100
AcDbCircle
 10
-64.169429
 20
284.467346
 40
17.999991
100
AcDbArc
 50
269.999997
 51
315.920833
  0
LINE
  5
44D
100
AcDbEntity
  8
L
  6
DIVIDE
 62
     4
100
AcDbLine
 10
-270.680055
 20
342.967360
 11
-288.669420
 21
342.967360
  0
LINE
  5
44E
100
AcDbEntity
  8
L
  6
DIVIDE
 62
     4
100
AcDbLine
 10
-289.669425
 20
343.967360
 11
-289.669425
 21
353.967360
  0
LINE
  5
44F
100
AcDbEntity
  8
L
  6
DIVIDE
 62
     4
100
AcDbLine
 10
-288.669420
 20
354.967360
 11
-284.980040
 21
354.967355
  0
LINE
  5
450
100
AcDbEntity
  8
L
  6
DIVIDE
 62
     4
100
AcDbLine
 10
-289.669425
 20
343.967360
 11
-288.669425
 21
342.967360
  0
LINE
  5
451
100
AcDbEntity
  8
L
  6
DIVIDE
 62
     4
100
AcDbLine
 10
-288.669420
 20
354.967360
 11
-289.669425
 21
353.967360
  0
LINE
  5
452
100
AcDbEntity
  8
L
  6
DIVIDE
 62
     4
100
AcDbLine
 10
-183.113610
 20
295.017410
 11
-185.778270
 21
295.017405
  0
LINE
  5
453
100
AcDbEntity
  8
L
  6
DIVIDE
 62
     4
100
AcDbLine
 10
-185.835315
 20
273.917400
 11
-180.167645
 21
273.917405
  0
ARC
  5
454
100
AcDbEntity
  8
L
  6
DIVIDE
 62
     4
100
AcDbCircle
 10
-178.762865
 20
276.449975
 40
7.404779
100
AcDbArc
 50
179.999846
 51
189.999950
  0
LINE
  5
455
100
AcDbEntity
  8
L
  6
DIVIDE
 62
     4
100
AcDbLine
 10
-186.055150
 20
275.164155
 11
-185.835315
 21
273.917405
  0
LINE
  5
456
100
AcDbEntity
  8
L
  6
DIVIDE
 62
     4
100
AcDbLine
 10
-186.167645
 20
276.449980
 11
-186.167645
 21
292.484820
  0
ARC
  5
457
100
AcDbEntity
  8
L
  6
DIVIDE
 62
     4
100
AcDbCircle
 10
-182.460653
 20
292.484810
 40
3.706992
100
AcDbArc
 50
169.999726
 51
179.999846
  0
LINE
  5
458
100
AcDbEntity
  8
L
  6
DIVIDE
 62
     4
100
AcDbLine
 10
-185.778270
 20
295.017400
 11
-186.111325
 21
293.128535
  0
LINE
  5
459
100
AcDbEntity
  8
L
  6
DIVIDE
 62
     4
100
AcDbLine
 10
-180.167645
 20
273.917405
 11
-180.167645
 21
271.967405
  0
LINE
  5
45A
100
AcDbEntity
  8
L
  6
DIVIDE
 62
     4
100
AcDbLine
 10
-179.167645
 20
270.967400
 11
-178.167645
 21
270.967405
  0
ARC
  5
45B
100
AcDbEntity
  8
L
  6
DIVIDE
 62
     4
100
AcDbCircle
 10
-179.167647
 20
271.967395
 40
0.999998
100
AcDbArc
 50
179.999430
 51
270.000096
  0
LINE
  5
45C
100
AcDbEntity
  8
L
  6
BORDER
 62
     4
100
AcDbLine
 10
-239.169410
 20
334.282755
 11
-239.169410
 21
260.536750
  0
LINE
  5
45D
100
AcDbEntity
  8
L
  6
BORDER
 62
     4
100
AcDbLine
 10
-204.169415
 20
312.967360
 11
-204.169415
 21
290.467360
  0
LINE
  5
45E
100
AcDbEntity
  8
L
  6
BORDER
 62
     4
100
AcDbLine
 10
72.830585
 20
307.967360
 11
72.830580
 21
291.467345
  0
LINE
  5
45F
100
AcDbEntity
  8
L
  6
BORDER
 62
     4
100
AcDbLine
 10
108.330585
 20
334.282755
 11
108.330585
 21
260.536750
  0
LINE
  5
460
100
AcDbEntity
  8
L
  6
BORDER
 62
     4
100
AcDbLine
 10
-215.169410
 20
312.967360
 11
-215.169410
 21
290.467360
  0
LINE
  5
461
100
AcDbEntity
  8
L
  6
DIVIDE
 62
     4
100
AcDbLine
 10
-252.669425
 20
316.467360
 11
-252.669420
 21
336.967365
  0
ARC
  5
462
100
AcDbEntity
  8
L
  6
DIVIDE
 62
     4
100
AcDbCircle
 10
-251.669427
 20
316.467357
 40
0.999998
100
AcDbArc
 50
179.999848
 51
270.000105
  0
LINE
  5
463
100
AcDbEntity
  8
L
  6
DIVIDE
 62
     4
100
AcDbLine
 10
-251.669425
 20
315.467360
 11
-248.169425
 21
315.467360
  0
LINE
  5
464
100
AcDbEntity
  8
L
  6
DIVIDE
 62
     4
100
AcDbLine
 10
-178.167640
 20
270.967405
 11
-176.667635
 21
270.967415
  0
LINE
  5
465
100
AcDbEntity
  8
L
  6
DIVIDE
 62
     4
100
AcDbLine
 10
-191.467645
 20
295.017415
 11
-196.278270
 21
295.017410
  0
LINE
  5
466
100
AcDbEntity
  8
L
  6
DIVIDE
 62
     4
100
AcDbLine
 10
-196.335315
 20
273.917405
 11
-191.467645
 21
273.917420
  0
ARC
  5
467
100
AcDbEntity
  8
L
  6
DIVIDE
 62
     4
100
AcDbCircle
 10
-189.262865
 20
276.449975
 40
7.404778
100
AcDbArc
 50
179.999807
 51
189.999912
  0
LINE
  5
468
100
AcDbEntity
  8
L
  6
DIVIDE
 62
     4
100
AcDbLine
 10
-196.555150
 20
275.164160
 11
-196.335315
 21
273.917410
  0
LINE
  5
469
100
AcDbEntity
  8
L
  6
DIVIDE
 62
     4
100
AcDbLine
 10
-196.667645
 20
276.449985
 11
-196.667645
 21
292.484825
  0
ARC
  5
46A
100
AcDbEntity
  8
L
  6
DIVIDE
 62
     4
100
AcDbCircle
 10
-192.960653
 20
292.484810
 40
3.706993
100
AcDbArc
 50
169.999649
 51
179.999769
  0
LINE
  5
46B
100
AcDbEntity
  8
L
  6
DIVIDE
 62
     4
100
AcDbLine
 10
-196.278270
 20
295.017405
 11
-196.611325
 21
293.128540
  0
LINE
  5
46C
100
AcDbEntity
  8
L
  6
DIVIDE
 62
     4
100
AcDbLine
 10
66.330580
 20
301.467360
 11
66.330580
 21
294.267360
  0
ARC
  5
46D
100
AcDbEntity
  8
L
  6
DIVIDE
 62
     4
100
AcDbCircle
 10
67.130580
 20
294.267356
 40
0.799996
100
AcDbArc
 50
179.999740
 51
270.000006
  0
LINE
  5
46E
100
AcDbEntity
  8
L
  6
DIVIDE
 62
     4
100
AcDbLine
 10
67.130580
 20
293.467360
 11
78.530580
 21
293.467360
  0
ARC
  5
46F
100
AcDbEntity
  8
L
  6
DIVIDE
 62
     4
100
AcDbCircle
 10
78.530580
 20
294.267356
 40
0.800000
100
AcDbArc
 50
270.000006
 51
0.000260
  0
LINE
  5
470
100
AcDbEntity
  8
L
  6
DIVIDE
 62
     4
100
AcDbLine
 10
79.330580
 20
294.267360
 11
79.330580
 21
301.467360
  0
LINE
  5
471
100
AcDbEntity
  8
L
  6
DIVIDE
 62
     4
100
AcDbLine
 10
80.280580
 20
301.467360
 11
80.280580
 21
303.467360
  0
LINE
  5
472
100
AcDbEntity
  8
L
  6
DIVIDE
 62
     4
100
AcDbLine
 10
65.380580
 20
303.467360
 11
65.380580
 21
301.467360
  0
LINE
  5
473
100
AcDbEntity
  8
L
  6
DIVIDE
 62
     4
100
AcDbLine
 10
65.380580
 20
301.467360
 11
66.330580
 21
301.467360
  0
LINE
  5
474
100
AcDbEntity
  8
L
  6
DIVIDE
 62
     4
100
AcDbLine
 10
79.330580
 20
301.467360
 11
80.280580
 21
301.467360
  0
LINE
  5
475
100
AcDbEntity
  8
L
  6
DIVIDE
 62
     4
100
AcDbLine
 10
42.328815
 20
293.467355
 11
52.530580
 21
293.467355
  0
ARC
  5
476
100
AcDbEntity
  8
L
  6
DIVIDE
 62
     4
100
AcDbCircle
 10
52.530580
 20
294.267351
 40
0.800000
100
AcDbArc
 50
270.000006
 51
0.000260
  0
LINE
  5
477
100
AcDbEntity
  8
L
  6
DIVIDE
 62
     4
100
AcDbLine
 10
53.330580
 20
294.267355
 11
53.330580
 21
294.669735
  0
LINE
  5
478
100
AcDbEntity
  8
L
  6
DIVIDE
 62
     4
100
AcDbLine
 10
-245.669410
 20
301.467360
 11
-245.669410
 21
294.267360
  0
ARC
  5
479
100
AcDbEntity
  8
L
  6
DIVIDE
 62
     4
100
AcDbCircle
 10
-244.869410
 20
294.267356
 40
0.799996
100
AcDbArc
 50
179.999740
 51
270.000006
  0
LINE
  5
47A
100
AcDbEntity
  8
L
  6
DIVIDE
 62
     4
100
AcDbLine
 10
-244.869410
 20
293.467360
 11
-230.969410
 21
293.467360
  0
LINE
  5
47B
100
AcDbEntity
  8
L
  6
DIVIDE
 62
     4
100
AcDbLine
 10
-246.619410
 20
303.467360
 11
-246.619410
 21
301.467360
  0
LINE
  5
47C
100
AcDbEntity
  8
L
  6
DIVIDE
 62
     4
100
AcDbLine
 10
-246.619410
 20
301.467360
 11
-245.669410
 21
301.467360
  0
LINE
  5
47D
100
AcDbEntity
  8
L
  6
DIVIDE
 62
     4
100
AcDbLine
 10
-230.169410
 20
301.467360
 11
-229.219410
 21
301.467360
  0
ARC
  5
47E
100
AcDbEntity
  8
L
  6
DIVIDE
 62
     4
100
AcDbCircle
 10
-220.869410
 20
294.267356
 40
0.799996
100
AcDbArc
 50
247.974002
 51
270.000006
  0
ARC
  5
47F
100
AcDbEntity
  8
L
  6
DIVIDE
 62
     4
100
AcDbCircle
 10
-230.969410
 20
294.267356
 40
0.800000
100
AcDbArc
 50
270.000006
 51
0.000260
  0
LINE
  5
480
100
AcDbEntity
  8
L
  6
DIVIDE
 62
     4
100
AcDbLine
 10
-230.169410
 20
294.267360
 11
-230.169410
 21
301.467360
  0
LINE
  5
481
100
AcDbEntity
  8
L
  6
DIVIDE
 62
     4
100
AcDbLine
 10
-229.219410
 20
301.467360
 11
-229.219410
 21
303.467360
  0
LINE
  5
482
100
AcDbEntity
  8
L
  6
DIVIDE
 62
     4
100
AcDbLine
 10
-220.869410
 20
293.467360
 11
-195.469410
 21
293.467360
  0
LINE
  5
483
100
AcDbEntity
  8
L
  6
DIVIDE
 62
     4
100
AcDbLine
 10
-194.669410
 20
301.467360
 11
-193.719410
 21
301.467360
  0
ARC
  5
484
100
AcDbEntity
  8
L
  6
DIVIDE
 62
     4
100
AcDbCircle
 10
-195.469410
 20
294.267356
 40
0.800000
100
AcDbArc
 50
270.000006
 51
0.000260
  0
LINE
  5
485
100
AcDbEntity
  8
L
  6
DIVIDE
 62
     4
100
AcDbLine
 10
-194.669410
 20
294.267360
 11
-194.669410
 21
301.467360
  0
LINE
  5
486
100
AcDbEntity
  8
L
  6
DIVIDE
 62
     4
100
AcDbLine
 10
-193.719410
 20
301.467360
 11
-193.719410
 21
303.467360
  0
LINE
  5
487
100
AcDbEntity
  8
L
  6
DIVIDE
 62
     4
100
AcDbLine
 10
104.330565
 20
293.467360
 11
114.030585
 21
293.467360
  0
ARC
  5
488
100
AcDbEntity
  8
L
  6
DIVIDE
 62
     4
100
AcDbCircle
 10
114.030585
 20
294.267356
 40
0.800000
100
AcDbArc
 50
270.000006
 51
0.000260
  0
LINE
  5
489
100
AcDbEntity
  8
L
  6
DIVIDE
 62
     4
100
AcDbLine
 10
114.830585
 20
294.267360
 11
114.830585
 21
301.467360
  0
LINE
  5
48A
100
AcDbEntity
  8
L
  6
DIVIDE
 62
     4
100
AcDbLine
 10
114.830585
 20
301.467360
 11
115.780585
 21
301.467360
  0
LINE
  5
48B
100
AcDbEntity
  8
L
  6
DIVIDE
 62
     4
100
AcDbLine
 10
115.780585
 20
301.467360
 11
115.780585
 21
303.467360
  0
LINE
  5
48C
100
AcDbEntity
  8
L
  6
DIVIDE
 62
     4
100
AcDbLine
 10
-269.169435
 20
419.338430
 11
-269.169440
 21
420.967350
  0
LINE
  5
48D
100
AcDbEntity
  8
L
  6
DIVIDE
 62
     4
100
AcDbLine
 10
-269.980055
 20
336.967345
 11
-269.980055
 21
290.718260
  0
LINE
  5
48E
100
AcDbEntity
  8
L
  6
DIVIDE
 62
     4
100
AcDbLine
 10
-257.980055
 20
336.967355
 11
-257.980055
 21
290.718260
  0
ARC
  5
48F
100
AcDbEntity
  8
L
  6
DIVIDE
 62
     4
100
AcDbCircle
 10
-263.980040
 20
290.718260
 40
6.000000
100
AcDbArc
 50
180.000000
 51
0.000000
  0
LINE
  5
490
100
AcDbEntity
  8
L
  6
DIVIDE
 62
     4
100
AcDbLine
 10
-270.480045
 20
418.967355
 11
-284.980045
 21
418.967355
  0
ARC
  5
491
100
AcDbEntity
  8
L
  6
DIVIDE
 62
     4
100
AcDbCircle
 10
-284.980064
 20
417.467350
 40
1.500005
100
AcDbArc
 50
89.999461
 51
179.999791
  0
LINE
  5
492
100
AcDbEntity
  8
L
  6
DIVIDE
 62
     4
100
AcDbLine
 10
-286.480050
 20
417.467355
 11
-286.480045
 21
388.467355
  0
LINE
  5
493
100
AcDbEntity
  8
L
  6
DIVIDE
 62
     4
100
AcDbLine
 10
-286.480045
 20
388.467355
 11
-289.480045
 21
388.467355
  0
LINE
  5
494
100
AcDbEntity
  8
L
  6
DIVIDE
 62
     4
100
AcDbLine
 10
-289.480045
 20
388.467355
 11
-289.480045
 21
385.467355
  0
LINE
  5
495
100
AcDbEntity
  8
L
  6
DIVIDE
 62
     4
100
AcDbLine
 10
-289.480045
 20
385.467355
 11
-286.480045
 21
385.467355
  0
LINE
  5
496
100
AcDbEntity
  8
L
  6
DIVIDE
 62
     4
100
AcDbLine
 10
-286.480045
 20
385.467355
 11
-286.480045
 21
356.467355
  0
ARC
  5
497
100
AcDbEntity
  8
L
  6
DIVIDE
 62
     4
100
AcDbCircle
 10
-284.980064
 20
356.467350
 40
1.499981
100
AcDbArc
 50
179.999791
 51
270.000730
  0
ARC
  5
498
100
AcDbEntity
  8
L
  6
DIVIDE
 62
     4
100
AcDbCircle
 10
-270.480064
 20
421.467350
 40
2.500009
100
AcDbArc
 50
270.000438
 51
301.617745
  0
LINE
  5
499
100
AcDbEntity
  8
L
  6
DIVIDE
 62
     4
100
AcDbLine
 10
-269.980055
 20
422.550020
 11
-278.327670
 21
432.498305
  0
ARC
  5
49A
100
AcDbEntity
  8
L
  6
DIVIDE
 62
     4
100
AcDbCircle
 10
-282.923937
 20
428.641580
 40
5.999996
100
AcDbArc
 50
39.999997
 51
115.522466
  0
ARC
  5
49B
100
AcDbEntity
  8
L
  6
DIVIDE
 62
     4
100
AcDbCircle
 10
-286.370859
 20
435.860910
 40
2.000004
100
AcDbArc
 50
220.000138
 51
295.522555
  0
ARC
  5
49C
100
AcDbEntity
  8
L
  6
DIVIDE
 62
     4
100
AcDbCircle
 10
-286.370859
 20
435.860910
 40
1.999994
100
AcDbArc
 50
140.000049
 51
220.000138
  0
LINE
  5
49D
100
AcDbEntity
  8
L
  6
DIVIDE
 62
     4
100
AcDbLine
 10
-287.902945
 20
437.146480
 11
-281.149230
 21
445.195250
  0
LINE
  5
49E
100
AcDbEntity
  8
L
  6
DIVIDE
 62
     4
100
AcDbLine
 10
-272.049970
 20
450.448705
 11
-281.149230
 21
445.195250
  0
ARC
  5
49F
100
AcDbEntity
  8
L
  6
DIVIDE
 62
     4
100
AcDbCircle
 10
-271.049970
 20
448.716662
 40
1.999993
100
AcDbArc
 50
57.384468
 51
120.000100
  0
LINE
  5
4A0
100
AcDbEntity
  8
L
  6
DIVIDE
 62
     4
100
AcDbLine
 10
-269.980055
 20
422.550020
 11
-269.980055
 21
420.967345
  0
LINE
  5
4A1
100
AcDbEntity
  8
L
  6
DIVIDE
 62
     4
100
AcDbLine
 10
-269.169435
 20
420.967350
 11
-269.980055
 21
420.967345
  0
LINE
  5
4A2
100
AcDbEntity
  8
L
  6
DIVIDE
 62
     4
100
AcDbLine
 10
-270.680060
 20
336.967345
 11
-270.680055
 21
342.967360
  0
LINE
  5
4A3
100
AcDbEntity
  8
L
  6
DIVIDE
 62
     4
100
AcDbLine
 10
-252.669420
 20
336.967360
 11
-257.980055
 21
336.967355
  0
LINE
  5
4A4
100
AcDbEntity
  8
L
  6
DIVIDE
 62
     4
100
AcDbLine
 10
-269.980055
 20
336.967345
 11
-270.680060
 21
336.967345
  0
ARC
  5
4A5
100
AcDbEntity
  8
L
  6
DIVIDE
 62
     4
100
AcDbCircle
 10
-271.049959
 20
448.716662
 40
1.999988
100
AcDbArc
 50
19.903887
 51
57.384745
  0
LINE
  5
4A6
100
AcDbEntity
  8
L
  6
DIVIDE
 62
     4
100
AcDbLine
 10
-269.169445
 20
460.967360
 11
-265.169445
 21
460.967360
  0
LINE
  5
4A7
100
AcDbEntity
  8
L
  6
DIVIDE
 62
     4
100
AcDbLine
 10
-269.169440
 20
449.397545
 11
-269.169445
 21
460.967360
  0
ARC
  5
4A8
100
AcDbEntity
  8
L
  6
DIVIDE
 62
     4
100
AcDbCircle
 10
-138.074169
 20
255.467360
 40
18.000014
100
AcDbArc
 50
90.000004
 51
137.014165
  0
LINE
  5
4A9
100
AcDbEntity
  8
L
  6
DIVIDE
 62
     4
100
AcDbLine
 10
-138.074170
 20
273.467360
 11
-101.692155
 21
273.467360
  0
ARC
  5
4AA
100
AcDbEntity
  8
L
  6
DIVIDE
 62
     4
100
AcDbCircle
 10
-101.692153
 20
268.467360
 40
5.000002
100
AcDbArc
 50
44.079170
 51
90.000024
  0
ARC
  5
4AB
100
AcDbEntity
  8
L
  6
DIVIDE
 62
     4
100
AcDbCircle
 10
-47.646704
 20
268.467360
 40
5.000000
100
AcDbArc
 50
90.000007
 51
135.920851
  0
ARC
  5
4AC
100
AcDbEntity
  8
L
  6
DIVIDE
 62
     4
100
AcDbCircle
 10
9.735320
 20
255.467360
 40
18.000000
100
AcDbArc
 50
42.985839
 51
90.000001
  0
ENDBLK
  5
4AD
100
AcDbEntity
  8
0
100
AcDbBlockEnd
  0
BLOCK
  5
4AE
100
AcDbEntity
  8
MASSE
100
AcDbBlockBegin
  2
*D0
 70
    65
 10
0.000000
 20
0.000000
 30
0.000000
  3
*D
  0
LINE
  5
4AF
100
AcDbEntity
  8
MASSE
  6
BYBLOCK
 62
     3
100
AcDbLine
 10
125.880573
 20
303.467357
 11
400.361963
 21
303.467308
  0
LINE
  5
4B0
100
AcDbEntity
  8
MASSE
  6
BYBLOCK
 62
     3
100
AcDbLine
 10
323.750007
 20
303.467328
 11
323.750007
 21
419.967328
  0
LINE
  5
4B1
100
AcDbEntity
  8
MASSE
  6
BYBLOCK
 62
     3
100
AcDbLine
 10
326.000007
 20
313.467328
 11
323.750007
 21
303.467328
  0
LINE
  5
4B2
100
AcDbEntity
  8
MASSE
  6
BYBLOCK
 62
     3
100
AcDbLine
 10
323.750007
 20
303.467328
 11
321.500007
 21
313.467328
  0
LINE
  5
4B3
100
AcDbEntity
  8
MASSE
  6
BYBLOCK
 62
     3
100
AcDbLine
 10
321.500007
 20
313.467328
 11
326.000007
 21
313.467328
  0
LINE
  5
4B4
100
AcDbEntity
  8
MASSE
  6
BYBLOCK
 62
     3
100
AcDbLine
 10
321.500007
 20
409.967328
 11
323.750007
 21
419.967328
  0
LINE
  5
4B5
100
AcDbEntity
  8
MASSE
  6
BYBLOCK
 62
     3
100
AcDbLine
 10
323.750007
 20
419.967328
 11
326.000007
 21
409.967328
  0
LINE
  5
4B6
100
AcDbEntity
  8
MASSE
  6
BYBLOCK
 62
     3
100
AcDbLine
 10
326.000007
 20
409.967328
 11
321.500007
 21
409.967328
  0
LINE
  5
4B7
100
AcDbEntity
  8
MASSE
  6
BYBLOCK
 62
     3
100
AcDbLine
 10
332.750007
 20
419.967317
 11
159.412923
 21
419.967357
  0
TEXT
  5
4B8
100
AcDbEntity
  8
MASSE
 62
     7
100
AcDbText
 10
316.050005
 20
324.967335
 30
0.000000
 40
17.500000
  1
116.5
 50
90.000000
 41
1.257485
 51
0.000000
  7
TXT8
 72
     1
 11
316.050005
 21
361.717335
 31
0.000000
100
AcDbText
 73
     0
  0
POINT
  5
4B9
100
AcDbEntity
  8
MASSE
  6
BYBLOCK
 62
     9
100
AcDbPoint
 10
125.830570
 20
303.467360
  0
POINT
  5
4BA
100
AcDbEntity
  8
MASSE
  6
BYBLOCK
 62
     9
100
AcDbPoint
 10
178.830550
 20
419.967360
  0
ENDBLK
  5
4BB
100
AcDbEntity
  8
0
100
AcDbBlockEnd
  0
BLOCK
  5
4BC
100
AcDbEntity
  8
MASSE
100
AcDbBlockBegin
  2
*D1
 70
    65
 10
0.000000
 20
0.000000
 30
0.000000
  3
*D
  0
LINE
  5
4BD
100
AcDbEntity
  8
MASSE
  6
BYBLOCK
 62
     3
100
AcDbLine
 10
-379.187397
 20
-119.480988
 11
-405.249987
 21
-119.480988
  0
LINE
  5
4BE
100
AcDbEntity
  8
MASSE
  6
BYBLOCK
 62
     3
100
AcDbLine
 10
-396.249987
 20
-119.480988
 11
-396.249987
 21
-24.481008
  0
LINE
  5
4BF
100
AcDbEntity
  8
MASSE
  6
BYBLOCK
 62
     3
100
AcDbLine
 10
-393.999987
 20
-109.480988
 11
-396.249987
 21
-119.480988
  0
LINE
  5
4C0
100
AcDbEntity
  8
MASSE
  6
BYBLOCK
 62
     3
100
AcDbLine
 10
-396.249987
 20
-119.480988
 11
-398.499987
 21
-109.480988
  0
LINE
  5
4C1
100
AcDbEntity
  8
MASSE
  6
BYBLOCK
 62
     3
100
AcDbLine
 10
-398.499987
 20
-109.480988
 11
-393.999987
 21
-109.480988
  0
LINE
  5
4C2
100
AcDbEntity
  8
MASSE
  6
BYBLOCK
 62
     3
100
AcDbLine
 10
-398.499987
 20
-34.481007
 11
-396.249987
 21
-24.481008
  0
LINE
  5
4C3
100
AcDbEntity
  8
MASSE
  6
BYBLOCK
 62
     3
100
AcDbLine
 10
-396.249987
 20
-24.481008
 11
-393.999987
 21
-34.481007
  0
LINE
  5
4C4
100
AcDbEntity
  8
MASSE
  6
BYBLOCK
 62
     3
100
AcDbLine
 10
-393.999987
 20
-34.481007
 11
-398.499987
 21
-34.481007
  0
LINE
  5
4C5
100
AcDbEntity
  8
MASSE
  6
BYBLOCK
 62
     3
100
AcDbLine
 10
-405.249987
 20
-24.481008
 11
-239.219417
 21
-24.481008
  0
TEXT
  5
4C6
100
AcDbEntity
  8
MASSE
 62
     7
100
AcDbText
 10
-403.949990
 20
-85.105990
 30
0.000000
 40
17.500000
  1
95
 50
90.000000
 41
0.898204
 51
0.000000
  7
TXT8
 72
     1
 11
-403.949990
 21
-71.980990
 31
0.000000
100
AcDbText
 73
     0
  0
POINT
  5
4C7
100
AcDbEntity
  8
MASSE
  6
BYBLOCK
 62
     9
100
AcDbPoint
 10
-379.137410
 20
-119.480990
  0
POINT
  5
4C8
100
AcDbEntity
  8
MASSE
  6
BYBLOCK
 62
     9
100
AcDbPoint
 10
-239.169430
 20
-24.480990
  0
ENDBLK
  5
4C9
100
AcDbEntity
  8
0
100
AcDbBlockEnd
  0
BLOCK
  5
4CA
100
AcDbEntity
  8
MASSE
100
AcDbBlockBegin
  2
*D2
 70
    65
 10
0.000000
 20
0.000000
 30
0.000000
  3
*D
  0
LINE
  5
4CB
100
AcDbEntity
  8
MASSE
  6
BYBLOCK
 62
     3
100
AcDbLine
 10
-124.219427
 20
-246.480983
 11
-405.249982
 21
-246.481012
  0
LINE
  5
4CC
100
AcDbEntity
  8
MASSE
  6
BYBLOCK
 62
     3
100
AcDbLine
 10
-396.249982
 20
-246.481008
 11
-396.249982
 21
-119.481008
  0
LINE
  5
4CD
100
AcDbEntity
  8
MASSE
  6
BYBLOCK
 62
     3
100
AcDbLine
 10
-393.999982
 20
-236.481008
 11
-396.249982
 21
-246.481008
  0
LINE
  5
4CE
100
AcDbEntity
  8
MASSE
  6
BYBLOCK
 62
     3
100
AcDbLine
 10
-396.249982
 20
-246.481008
 11
-398.499982
 21
-236.481008
  0
LINE
  5
4CF
100
AcDbEntity
  8
MASSE
  6
BYBLOCK
 62
     3
100
AcDbLine
 10
-398.499982
 20
-236.481008
 11
-393.999982
 21
-236.481008
  0
LINE
  5
4D0
100
AcDbEntity
  8
MASSE
  6
BYBLOCK
 62
     3
100
AcDbLine
 10
-398.499982
 20
-129.481008
 11
-396.249982
 21
-119.481008
  0
LINE
  5
4D1
100
AcDbEntity
  8
MASSE
  6
BYBLOCK
 62
     3
100
AcDbLine
 10
-396.249982
 20
-119.481008
 11
-393.999982
 21
-129.481008
  0
LINE
  5
4D2
100
AcDbEntity
  8
MASSE
  6
BYBLOCK
 62
     3
100
AcDbLine
 10
-393.999982
 20
-129.481008
 11
-398.499982
 21
-129.481008
  0
LINE
  5
4D3
100
AcDbEntity
  8
MASSE
  6
BYBLOCK
 62
     3
100
AcDbLine
 10
-405.249987
 20
-119.481017
 11
-379.187412
 21
-119.480998
  0
TEXT
  5
4D4
100
AcDbEntity
  8
MASSE
 62
     7
100
AcDbText
 10
-403.949985
 20
-203.981000
 30
0.000000
 40
17.500000
  1
127
 50
90.000000
 41
1.025641
 51
0.000000
  7
TXT8
 72
     1
 11
-403.949985
 21
-182.981000
 31
0.000000
100
AcDbText
 73
     0
  0
POINT
  5
4D5
100
AcDbEntity
  8
MASSE
  6
BYBLOCK
 62
     9
100
AcDbPoint
 10
-124.169430
 20
-246.480980
  0
POINT
  5
4D6
100
AcDbEntity
  8
MASSE
  6
BYBLOCK
 62
     9
100
AcDbPoint
 10
-379.137410
 20
-119.480990
  0
ENDBLK
  5
4D7
100
AcDbEntity
  8
0
100
AcDbBlockEnd
  0
BLOCK
  5
4D8
100
AcDbEntity
  8
MASSE
100
AcDbBlockBegin
  2
*D3
 70
    65
 10
0.000000
 20
0.000000
 30
0.000000
  3
*D
  0
LINE
  5
4D9
100
AcDbEntity
  8
MASSE
  6
BYBLOCK
 62
     3
100
AcDbLine
 10
-239.169423
 20
-221.542248
 11
-239.169398
 21
-324.000013
  0
LINE
  5
4DA
100
AcDbEntity
  8
MASSE
  6
BYBLOCK
 62
     3
100
AcDbLine
 10
-239.169408
 20
-315.000013
 11
-64.169398
 21
-315.000013
  0
LINE
  5
4DB
100
AcDbEntity
  8
MASSE
  6
BYBLOCK
 62
     3
100
AcDbLine
 10
-229.169408
 20
-317.250013
 11
-239.169408
 21
-315.000013
  0
LINE
  5
4DC
100
AcDbEntity
  8
MASSE
  6
BYBLOCK
 62
     3
100
AcDbLine
 10
-239.169408
 20
-315.000013
 11
-229.169408
 21
-312.750013
  0
LINE
  5
4DD
100
AcDbEntity
  8
MASSE
  6
BYBLOCK
 62
     3
100
AcDbLine
 10
-229.169408
 20
-312.750013
 11
-229.169408
 21
-317.250013
  0
LINE
  5
4DE
100
AcDbEntity
  8
MASSE
  6
BYBLOCK
 62
     3
100
AcDbLine
 10
-74.169398
 20
-312.750013
 11
-64.169398
 21
-315.000013
  0
LINE
  5
4DF
100
AcDbEntity
  8
MASSE
  6
BYBLOCK
 62
     3
100
AcDbLine
 10
-64.169398
 20
-315.000013
 11
-74.169398
 21
-317.250013
  0
LINE
  5
4E0
100
AcDbEntity
  8
MASSE
  6
BYBLOCK
 62
     3
100
AcDbLine
 10
-74.169398
 20
-317.250013
 11
-74.169398
 21
-312.750013
  0
LINE
  5
4E1
100
AcDbEntity
  8
MASSE
  6
BYBLOCK
 62
     3
100
AcDbLine
 10
-64.169387
 20
-306.000013
 11
-64.169408
 21
-384.102377
  0
TEXT
  5
4E2
100
AcDbEntity
  8
MASSE
 62
     7
100
AcDbText
 10
-172.669410
 20
-307.300015
 30
0.000000
 40
17.500000
  1
175
 50
0.000000
 41
1.025641
 51
0.000000
  7
TXT8
 72
     1
 11
-151.669410
 21
-307.300015
 31
0.000000
100
AcDbText
 73
     0
  0
POINT
  5
4E3
100
AcDbEntity
  8
MASSE
  6
BYBLOCK
 62
     9
100
AcDbPoint
 10
-239.169430
 20
-236.980970
  0
POINT
  5
4E4
100
AcDbEntity
  8
MASSE
  6
BYBLOCK
 62
     9
100
AcDbPoint
 10
-64.169420
 20
-384.152380
  0
ENDBLK
  5
4E5
100
AcDbEntity
  8
0
100
AcDbBlockEnd
  0
BLOCK
  5
4E6
100
AcDbEntity
  8
MASSE
100
AcDbBlockBegin
  2
*D4
 70
    65
 10
0.000000
 20
0.000000
 30
0.000000
  3
*D
  0
LINE
  5
4E7
100
AcDbEntity
  8
MASSE
  6
BYBLOCK
 62
     3
100
AcDbLine
 10
-254.169428
 20
-199.530978
 11
-254.169428
 21
-383.999998
  0
LINE
  5
4E8
100
AcDbEntity
  8
MASSE
  6
BYBLOCK
 62
     3
100
AcDbLine
 10
-254.169428
 20
-374.999998
 11
-64.169408
 21
-374.999998
  0
LINE
  5
4E9
100
AcDbEntity
  8
MASSE
  6
BYBLOCK
 62
     3
100
AcDbLine
 10
-244.169428
 20
-377.249998
 11
-254.169428
 21
-374.999998
  0
LINE
  5
4EA
100
AcDbEntity
  8
MASSE
  6
BYBLOCK
 62
     3
100
AcDbLine
 10
-254.169428
 20
-374.999998
 11
-244.169428
 21
-372.749998
  0
LINE
  5
4EB
100
AcDbEntity
  8
MASSE
  6
BYBLOCK
 62
     3
100
AcDbLine
 10
-244.169428
 20
-372.749998
 11
-244.169428
 21
-377.249998
  0
LINE
  5
4EC
100
AcDbEntity
  8
MASSE
  6
BYBLOCK
 62
     3
100
AcDbLine
 10
-74.169408
 20
-372.749998
 11
-64.169408
 21
-374.999998
  0
LINE
  5
4ED
100
AcDbEntity
  8
MASSE
  6
BYBLOCK
 62
     3
100
AcDbLine
 10
-64.169408
 20
-374.999998
 11
-74.169408
 21
-377.249998
  0
LINE
  5
4EE
100
AcDbEntity
  8
MASSE
  6
BYBLOCK
 62
     3
100
AcDbLine
 10
-74.169408
 20
-377.249998
 11
-74.169408
 21
-372.749998
  0
LINE
  5
4EF
100
AcDbEntity
  8
MASSE
  6
BYBLOCK
 62
     3
100
AcDbLine
 10
-64.169403
 20
-365.999998
 11
-64.169413
 21
-384.102377
  0
TEXT
  5
4F0
100
AcDbEntity
  8
MASSE
 62
     7
100
AcDbText
 10
-180.169420
 20
-367.300000
 30
0.000000
 40
17.500000
  1
190
 50
0.000000
 41
1.105991
 51
0.000000
  7
TXT8
 72
     1
 11
-159.169420
 21
-367.300000
 31
0.000000
100
AcDbText
 73
     0
  0
POINT
  5
4F1
100
AcDbEntity
  8
MASSE
  6
BYBLOCK
 62
     9
100
AcDbPoint
 10
-254.169430
 20
-199.480980
  0
POINT
  5
4F2
100
AcDbEntity
  8
MASSE
  6
BYBLOCK
 62
     9
100
AcDbPoint
 10
-64.169420
 20
-384.152380
  0
ENDBLK
  5
4F3
100
AcDbEntity
  8
0
100
AcDbBlockEnd
  0
BLOCK
  5
4F4
100
AcDbEntity
  8
MASSE
100
AcDbBlockBegin
  2
*D5
 70
    65
 10
0.000000
 20
0.000000
 30
0.000000
  3
*D
  0
LINE
  5
4F5
100
AcDbEntity
  8
MASSE
  6
BYBLOCK
 62
     3
100
AcDbLine
 10
-64.169413
 20
-384.102377
 11
-64.169413
 21
-306.000007
  0
LINE
  5
4F6
100
AcDbEntity
  8
MASSE
  6
BYBLOCK
 62
     3
100
AcDbLine
 10
-64.169417
 20
-315.000007
 11
110.830553
 21
-315.000007
  0
LINE
  5
4F7
100
AcDbEntity
  8
MASSE
  6
BYBLOCK
 62
     3
100
AcDbLine
 10
-54.169418
 20
-317.250007
 11
-64.169417
 21
-315.000007
  0
LINE
  5
4F8
100
AcDbEntity
  8
MASSE
  6
BYBLOCK
 62
     3
100
AcDbLine
 10
-64.169417
 20
-315.000007
 11
-54.169418
 21
-312.750007
  0
LINE
  5
4F9
100
AcDbEntity
  8
MASSE
  6
BYBLOCK
 62
     3
100
AcDbLine
 10
-54.169418
 20
-312.750007
 11
-54.169418
 21
-317.250007
  0
LINE
  5
4FA
100
AcDbEntity
  8
MASSE
  6
BYBLOCK
 62
     3
100
AcDbLine
 10
100.830553
 20
-312.750007
 11
110.830553
 21
-315.000007
  0
LINE
  5
4FB
100
AcDbEntity
  8
MASSE
  6
BYBLOCK
 62
     3
100
AcDbLine
 10
110.830553
 20
-315.000007
 11
100.830553
 21
-317.250007
  0
LINE
  5
4FC
100
AcDbEntity
  8
MASSE
  6
BYBLOCK
 62
     3
100
AcDbLine
 10
100.830553
 20
-317.250007
 11
100.830553
 21
-312.750007
  0
LINE
  5
4FD
100
AcDbEntity
  8
MASSE
  6
BYBLOCK
 62
     3
100
AcDbLine
 10
110.830563
 20
-324.000007
 11
110.830558
 21
-221.542248
  0
TEXT
  5
4FE
100
AcDbEntity
  8
MASSE
 62
     7
100
AcDbText
 10
2.330560
 20
-307.300010
 30
0.000000
 40
17.500000
  1
175
 50
0.000000
 41
1.025641
 51
0.000000
  7
TXT8
 72
     1
 11
23.330560
 21
-307.300010
 31
0.000000
100
AcDbText
 73
     0
  0
POINT
  5
4FF
100
AcDbEntity
  8
MASSE
  6
BYBLOCK
 62
     9
100
AcDbPoint
 10
-64.169420
 20
-384.152380
  0
POINT
  5
500
100
AcDbEntity
  8
MASSE
  6
BYBLOCK
 62
     9
100
AcDbPoint
 10
110.830550
 20
-236.980970
  0
ENDBLK
  5
501
100
AcDbEntity
  8
0
100
AcDbBlockEnd
  0
BLOCK
  5
502
100
AcDbEntity
  8
MASSE
100
AcDbBlockBegin
  2
*D6
 70
    65
 10
0.000000
 20
0.000000
 30
0.000000
  3
*D
  0
LINE
  5
503
100
AcDbEntity
  8
MASSE
  6
BYBLOCK
 62
     3
100
AcDbLine
 10
-64.169413
 20
-384.102377
 11
-64.169408
 21
-366.000027
  0
LINE
  5
504
100
AcDbEntity
  8
MASSE
  6
BYBLOCK
 62
     3
100
AcDbLine
 10
-64.169413
 20
-375.000027
 11
125.830568
 21
-375.000027
  0
LINE
  5
505
100
AcDbEntity
  8
MASSE
  6
BYBLOCK
 62
     3
100
AcDbLine
 10
-54.169413
 20
-377.250027
 11
-64.169413
 21
-375.000027
  0
LINE
  5
506
100
AcDbEntity
  8
MASSE
  6
BYBLOCK
 62
     3
100
AcDbLine
 10
-64.169413
 20
-375.000027
 11
-54.169413
 21
-372.750027
  0
LINE
  5
507
100
AcDbEntity
  8
MASSE
  6
BYBLOCK
 62
     3
100
AcDbLine
 10
-54.169413
 20
-372.750027
 11
-54.169413
 21
-377.250027
  0
LINE
  5
508
100
AcDbEntity
  8
MASSE
  6
BYBLOCK
 62
     3
100
AcDbLine
 10
115.830568
 20
-372.750027
 11
125.830568
 21
-375.000027
  0
LINE
  5
509
100
AcDbEntity
  8
MASSE
  6
BYBLOCK
 62
     3
100
AcDbLine
 10
125.830568
 20
-375.000027
 11
115.830568
 21
-377.250027
  0
LINE
  5
50A
100
AcDbEntity
  8
MASSE
  6
BYBLOCK
 62
     3
100
AcDbLine
 10
115.830568
 20
-377.250027
 11
115.830568
 21
-372.750027
  0
LINE
  5
50B
100
AcDbEntity
  8
MASSE
  6
BYBLOCK
 62
     3
100
AcDbLine
 10
125.830568
 20
-384.000027
 11
125.830573
 21
-199.530978
  0
TEXT
  5
50C
100
AcDbEntity
  8
MASSE
 62
     7
100
AcDbText
 10
9.830565
 20
-367.300030
 30
0.000000
 40
17.500000
  1
190
 50
0.000000
 41
1.105991
 51
0.000000
  7
TXT8
 72
     1
 11
30.830565
 21
-367.300030
 31
0.000000
100
AcDbText
 73
     0
  0
POINT
  5
50D
100
AcDbEntity
  8
MASSE
  6
BYBLOCK
 62
     9
100
AcDbPoint
 10
-64.169420
 20
-384.152380
  0
POINT
  5
50E
100
AcDbEntity
  8
MASSE
  6
BYBLOCK
 62
     9
100
AcDbPoint
 10
125.830570
 20
-199.480980
  0
ENDBLK
  5
50F
100
AcDbEntity
  8
0
100
AcDbBlockEnd
  0
BLOCK
  5
510
100
AcDbEntity
  8
MASSE
100
AcDbBlockBegin
  2
*D7
 70
    65
 10
0.000000
 20
0.000000
 30
0.000000
  3
*D
  0
LINE
  5
511
100
AcDbEntity
  8
MASSE
  6
BYBLOCK
 62
     3
100
AcDbLine
 10
129.830563
 20
-199.480983
 11
272.750013
 21
-199.480998
  0
LINE
  5
512
100
AcDbEntity
  8
MASSE
  6
BYBLOCK
 62
     3
100
AcDbLine
 10
263.750013
 20
-199.480993
 11
263.750013
 21
-119.480993
  0
LINE
  5
513
100
AcDbEntity
  8
MASSE
  6
BYBLOCK
 62
     3
100
AcDbLine
 10
266.000013
 20
-189.480993
 11
263.750013
 21
-199.480993
  0
LINE
  5
514
100
AcDbEntity
  8
MASSE
  6
BYBLOCK
 62
     3
100
AcDbLine
 10
263.750013
 20
-199.480993
 11
261.500013
 21
-189.480993
  0
LINE
  5
515
100
AcDbEntity
  8
MASSE
  6
BYBLOCK
 62
     3
100
AcDbLine
 10
261.500013
 20
-189.480993
 11
266.000013
 21
-189.480993
  0
LINE
  5
516
100
AcDbEntity
  8
MASSE
  6
BYBLOCK
 62
     3
100
AcDbLine
 10
261.500013
 20
-129.480993
 11
263.750013
 21
-119.480993
  0
LINE
  5
517
100
AcDbEntity
  8
MASSE
  6
BYBLOCK
 62
     3
100
AcDbLine
 10
263.750013
 20
-119.480993
 11
266.000013
 21
-129.480993
  0
LINE
  5
518
100
AcDbEntity
  8
MASSE
  6
BYBLOCK
 62
     3
100
AcDbLine
 10
266.000013
 20
-129.480993
 11
261.500013
 21
-129.480993
  0
LINE
  5
519
100
AcDbEntity
  8
MASSE
  6
BYBLOCK
 62
     3
100
AcDbLine
 10
272.750013
 20
-119.480993
 11
222.864643
 21
-119.480988
  0
TEXT
  5
51A
100
AcDbEntity
  8
MASSE
 62
     7
100
AcDbText
 10
256.050010
 20
-172.605985
 30
0.000000
 40
17.500000
  1
80
 50
90.000000
 41
1.000000
 51
0.000000
  7
TXT8
 72
     1
 11
256.050010
 21
-159.480985
 31
0.000000
100
AcDbText
 73
     0
  0
POINT
  5
51B
100
AcDbEntity
  8
MASSE
  6
BYBLOCK
 62
     9
100
AcDbPoint
 10
148.330550
 20
-199.480980
  0
POINT
  5
51C
100
AcDbEntity
  8
MASSE
  6
BYBLOCK
 62
     9
100
AcDbPoint
 10
222.814640
 20
-119.480990
  0
ENDBLK
  5
51D
100
AcDbEntity
  8
0
100
AcDbBlockEnd
  0
BLOCK
  5
51E
100
AcDbEntity
  8
MASSE
100
AcDbBlockBegin
  2
*D8
 70
    65
 10
0.000000
 20
0.000000
 30
0.000000
  3
*D
  0
LINE
  5
51F
100
AcDbEntity
  8
MASSE
  6
BYBLOCK
 62
     3
100
AcDbLine
 10
222.864643
 20
-119.480988
 11
272.750013
 21
-119.480988
  0
LINE
  5
520
100
AcDbEntity
  8
MASSE
  6
BYBLOCK
 62
     3
100
AcDbLine
 10
263.750013
 20
-119.480988
 11
263.750013
 21
-39.480998
  0
LINE
  5
521
100
AcDbEntity
  8
MASSE
  6
BYBLOCK
 62
     3
100
AcDbLine
 10
266.000013
 20
-109.480988
 11
263.750013
 21
-119.480988
  0
LINE
  5
522
100
AcDbEntity
  8
MASSE
  6
BYBLOCK
 62
     3
100
AcDbLine
 10
263.750013
 20
-119.480988
 11
261.500013
 21
-109.480988
  0
LINE
  5
523
100
AcDbEntity
  8
MASSE
  6
BYBLOCK
 62
     3
100
AcDbLine
 10
261.500013
 20
-109.480988
 11
266.000013
 21
-109.480988
  0
LINE
  5
524
100
AcDbEntity
  8
MASSE
  6
BYBLOCK
 62
     3
100
AcDbLine
 10
261.500013
 20
-49.480998
 11
263.750013
 21
-39.480998
  0
LINE
  5
525
100
AcDbEntity
  8
MASSE
  6
BYBLOCK
 62
     3
100
AcDbLine
 10
263.750013
 20
-39.480998
 11
266.000013
 21
-49.480998
  0
LINE
  5
526
100
AcDbEntity
  8
MASSE
  6
BYBLOCK
 62
     3
100
AcDbLine
 10
266.000013
 20
-49.480998
 11
261.500013
 21
-49.480998
  0
LINE
  5
527
100
AcDbEntity
  8
MASSE
  6
BYBLOCK
 62
     3
100
AcDbLine
 10
272.750013
 20
-39.481003
 11
214.247418
 21
-39.480992
  0
TEXT
  5
528
100
AcDbEntity
  8
MASSE
 62
     7
100
AcDbText
 10
256.050010
 20
-92.605990
 30
0.000000
 40
17.500000
  1
80
 50
90.000000
 41
1.000000
 51
0.000000
  7
TXT8
 72
     1
 11
256.050010
 21
-79.480990
 31
0.000000
100
AcDbText
 73
     0
  0
POINT
  5
529
100
AcDbEntity
  8
MASSE
  6
BYBLOCK
 62
     9
100
AcDbPoint
 10
222.814640
 20
-119.480990
  0
POINT
  5
52A
100
AcDbEntity
  8
MASSE
  6
BYBLOCK
 62
     9
100
AcDbPoint
 10
148.330560
 20
-39.480990
  0
ENDBLK
  5
52B
100
AcDbEntity
  8
0
100
AcDbBlockEnd
  0
BLOCK
  5
52C
100
AcDbEntity
  8
MASSE
100
AcDbBlockBegin
  2
*D9
 70
    65
 10
0.000000
 20
0.000000
 30
0.000000
  3
*D
  0
LINE
  5
52D
100
AcDbEntity
  8
MASSE
  6
BYBLOCK
 62
     3
100
AcDbLine
 10
-165.717643
 20
266.467362
 11
-375.249987
 21
266.467362
  0
LINE
  5
52E
100
AcDbEntity
  8
MASSE
  6
BYBLOCK
 62
     3
100
AcDbLine
 10
-366.249987
 20
266.467362
 11
-366.249987
 21
419.967362
  0
LINE
  5
52F
100
AcDbEntity
  8
MASSE
  6
BYBLOCK
 62
     3
100
AcDbLine
 10
-363.999987
 20
276.467362
 11
-366.249987
 21
266.467362
  0
LINE
  5
530
100
AcDbEntity
  8
MASSE
  6
BYBLOCK
 62
     3
100
AcDbLine
 10
-366.249987
 20
266.467362
 11
-368.499987
 21
276.467362
  0
LINE
  5
531
100
AcDbEntity
  8
MASSE
  6
BYBLOCK
 62
     3
100
AcDbLine
 10
-368.499987
 20
276.467362
 11
-363.999987
 21
276.467362
  0
LINE
  5
532
100
AcDbEntity
  8
MASSE
  6
BYBLOCK
 62
     3
100
AcDbLine
 10
-368.499987
 20
409.967362
 11
-366.249987
 21
419.967362
  0
LINE
  5
533
100
AcDbEntity
  8
MASSE
  6
BYBLOCK
 62
     3
100
AcDbLine
 10
-366.249987
 20
419.967362
 11
-363.999987
 21
409.967362
  0
LINE
  5
534
100
AcDbEntity
  8
MASSE
  6
BYBLOCK
 62
     3
100
AcDbLine
 10
-363.999987
 20
409.967362
 11
-368.499987
 21
409.967362
  0
LINE
  5
535
100
AcDbEntity
  8
MASSE
  6
BYBLOCK
 62
     3
100
AcDbLine
 10
-375.249987
 20
419.967362
 11
-321.156322
 21
419.967362
  0
TEXT
  5
536
100
AcDbEntity
  8
MASSE
 62
     7
100
AcDbText
 10
-373.949990
 20
290.717360
 30
0.000000
 40
17.500000
  1
(153.5)
 50
90.000000
 41
1.200000
 51
0.000000
  7
TXT8
 72
     1
 11
-373.949990
 21
343.217360
 31
0.000000
100
AcDbText
 73
     0
  0
POINT
  5
537
100
AcDbEntity
  8
MASSE
  6
BYBLOCK
 62
     9
100
AcDbPoint
 10
-165.667645
 20
266.467360
  0
POINT
  5
538
100
AcDbEntity
  8
MASSE
  6
BYBLOCK
 62
     9
100
AcDbPoint
 10
-321.106325
 20
419.967360
  0
ENDBLK
  5
539
100
AcDbEntity
  8
0
100
AcDbBlockEnd
  0
BLOCK
  5
53A
100
AcDbEntity
  8
MASSE
100
AcDbBlockBegin
  2
*D10
 70
    65
 10
0.000000
 20
0.000000
 30
0.000000
  3
*D
  0
LINE
  5
53B
100
AcDbEntity
  8
MASSE
  6
BYBLOCK
 62
     3
100
AcDbLine
 10
-196.667647
 20
276.400003
 11
-196.667647
 21
156.000002
  0
LINE
  5
53C
100
AcDbEntity
  8
MASSE
  6
BYBLOCK
 62
     3
100
AcDbLine
 10
-299.525917
 20
165.000002
 11
-196.667647
 21
165.000002
  0
LINE
  5
53D
100
AcDbEntity
  8
MASSE
  6
BYBLOCK
 62
     3
100
AcDbLine
 10
-206.667647
 20
167.250002
 11
-196.667647
 21
165.000002
  0
LINE
  5
53E
100
AcDbEntity
  8
MASSE
  6
BYBLOCK
 62
     3
100
AcDbLine
 10
-196.667647
 20
165.000002
 11
-206.667647
 21
162.750002
  0
LINE
  5
53F
100
AcDbEntity
  8
MASSE
  6
BYBLOCK
 62
     3
100
AcDbLine
 10
-206.667647
 20
162.750002
 11
-206.667647
 21
167.250002
  0
LINE
  5
540
100
AcDbEntity
  8
MASSE
  6
BYBLOCK
 62
     3
100
AcDbLine
 10
-196.667647
 20
165.000002
 11
-186.167647
 21
165.000002
  0
LINE
  5
541
100
AcDbEntity
  8
MASSE
  6
BYBLOCK
 62
     3
100
AcDbLine
 10
-186.167647
 20
165.000002
 11
-168.667647
 21
165.000002
  0
LINE
  5
542
100
AcDbEntity
  8
MASSE
  6
BYBLOCK
 62
     3
100
AcDbLine
 10
-176.167647
 20
162.750002
 11
-186.167647
 21
165.000002
  0
LINE
  5
543
100
AcDbEntity
  8
MASSE
  6
BYBLOCK
 62
     3
100
AcDbLine
 10
-186.167647
 20
165.000002
 11
-176.167647
 21
167.250002
  0
LINE
  5
544
100
AcDbEntity
  8
MASSE
  6
BYBLOCK
 62
     3
100
AcDbLine
 10
-176.167647
 20
167.250002
 11
-176.167647
 21
162.750002
  0
LINE
  5
545
100
AcDbEntity
  8
MASSE
  6
BYBLOCK
 62
     3
100
AcDbLine
 10
-186.167647
 20
156.000002
 11
-186.167647
 21
276.399997
  0
TEXT
  5
546
100
AcDbEntity
  8
MASSE
 62
     7
100
AcDbText
 10
-299.866910
 20
172.700000
 30
0.000000
 40
17.500000
  1
(10.5)
 50
0.000000
 41
1.331593
 51
0.000000
  7
TXT8
 72
     1
 11
-255.241910
 21
172.700000
 31
0.000000
100
AcDbText
 73
     0
  0
POINT
  5
547
100
AcDbEntity
  8
MASSE
  6
BYBLOCK
 62
     9
100
AcDbPoint
 10
-196.667650
 20
276.450000
  0
POINT
  5
548
100
AcDbEntity
  8
MASSE
  6
BYBLOCK
 62
     9
100
AcDbPoint
 10
-186.167650
 20
276.449995
  0
ENDBLK
  5
549
100
AcDbEntity
  8
0
100
AcDbBlockEnd
  0
BLOCK
  5
54A
100
AcDbEntity
  8
MASSE
100
AcDbBlockBegin
  2
*D11
 70
    65
 10
0.000000
 20
0.000000
 30
0.000000
  3
*D
  0
LINE
  5
54B
100
AcDbEntity
  8
MASSE
  6
BYBLOCK
 62
     3
100
AcDbLine
 10
-186.167647
 20
276.399997
 11
-186.167647
 21
156.000002
  0
LINE
  5
54C
100
AcDbEntity
  8
MASSE
  6
BYBLOCK
 62
     3
100
AcDbLine
 10
-186.167647
 20
165.000002
 11
-64.169427
 21
165.000002
  0
LINE
  5
54D
100
AcDbEntity
  8
MASSE
  6
BYBLOCK
 62
     3
100
AcDbLine
 10
-176.167647
 20
162.750002
 11
-186.167647
 21
165.000002
  0
LINE
  5
54E
100
AcDbEntity
  8
MASSE
  6
BYBLOCK
 62
     3
100
AcDbLine
 10
-186.167647
 20
165.000002
 11
-176.167647
 21
167.250002
  0
LINE
  5
54F
100
AcDbEntity
  8
MASSE
  6
BYBLOCK
 62
     3
100
AcDbLine
 10
-176.167647
 20
167.250002
 11
-176.167647
 21
162.750002
  0
LINE
  5
550
100
AcDbEntity
  8
MASSE
  6
BYBLOCK
 62
     3
100
AcDbLine
 10
-74.169427
 20
167.250002
 11
-64.169427
 21
165.000002
  0
LINE
  5
551
100
AcDbEntity
  8
MASSE
  6
BYBLOCK
 62
     3
100
AcDbLine
 10
-64.169427
 20
165.000002
 11
-74.169427
 21
162.750002
  0
LINE
  5
552
100
AcDbEntity
  8
MASSE
  6
BYBLOCK
 62
     3
100
AcDbLine
 10
-74.169427
 20
162.750002
 11
-74.169427
 21
167.250002
  0
LINE
  5
553
100
AcDbEntity
  8
MASSE
  6
BYBLOCK
 62
     3
100
AcDbLine
 10
-64.169427
 20
156.000002
 11
-64.169427
 21
231.996533
  0
TEXT
  5
554
100
AcDbEntity
  8
MASSE
 62
     7
100
AcDbText
 10
-146.168540
 20
172.700000
 30
0.000000
 40
17.500000
  1
122
 50
0.000000
 41
1.025641
 51
0.000000
  7
TXT8
 72
     1
 11
-125.168540
 21
172.700000
 31
0.000000
100
AcDbText
 73
     0
  0
POINT
  5
555
100
AcDbEntity
  8
MASSE
  6
BYBLOCK
 62
     9
100
AcDbPoint
 10
-186.167650
 20
276.449995
  0
POINT
  5
556
100
AcDbEntity
  8
MASSE
  6
BYBLOCK
 62
     9
100
AcDbPoint
 10
-64.169430
 20
232.046530
  0
ENDBLK
  5
557
100
AcDbEntity
  8
0
100
AcDbBlockEnd
  0
BLOCK
  5
558
100
AcDbEntity
  8
MASSE
100
AcDbBlockBegin
  2
*D12
 70
    65
 10
0.000000
 20
0.000000
 30
0.000000
  3
*D
  0
LINE
  5
559
100
AcDbEntity
  8
MASSE
  6
BYBLOCK
 62
     3
100
AcDbLine
 10
-170.669428
 20
270.417447
 11
-170.669428
 21
201.000002
  0
LINE
  5
55A
100
AcDbEntity
  8
MASSE
  6
BYBLOCK
 62
     3
100
AcDbLine
 10
-170.669428
 20
210.000002
 11
-64.169427
 21
210.000002
  0
LINE
  5
55B
100
AcDbEntity
  8
MASSE
  6
BYBLOCK
 62
     3
100
AcDbLine
 10
-160.669428
 20
207.750002
 11
-170.669428
 21
210.000002
  0
LINE
  5
55C
100
AcDbEntity
  8
MASSE
  6
BYBLOCK
 62
     3
100
AcDbLine
 10
-170.669428
 20
210.000002
 11
-160.669428
 21
212.250002
  0
LINE
  5
55D
100
AcDbEntity
  8
MASSE
  6
BYBLOCK
 62
     3
100
AcDbLine
 10
-160.669428
 20
212.250002
 11
-160.669428
 21
207.750002
  0
LINE
  5
55E
100
AcDbEntity
  8
MASSE
  6
BYBLOCK
 62
     3
100
AcDbLine
 10
-74.169427
 20
212.250002
 11
-64.169427
 21
210.000002
  0
LINE
  5
55F
100
AcDbEntity
  8
MASSE
  6
BYBLOCK
 62
     3
100
AcDbLine
 10
-64.169427
 20
210.000002
 11
-74.169427
 21
207.750002
  0
LINE
  5
560
100
AcDbEntity
  8
MASSE
  6
BYBLOCK
 62
     3
100
AcDbLine
 10
-74.169427
 20
207.750002
 11
-74.169427
 21
212.250002
  0
LINE
  5
561
100
AcDbEntity
  8
MASSE
  6
BYBLOCK
 62
     3
100
AcDbLine
 10
-64.169427
 20
201.000002
 11
-64.169427
 21
231.996533
  0
TEXT
  5
562
100
AcDbEntity
  8
MASSE
 62
     7
100
AcDbText
 10
-169.919430
 20
217.700000
 30
0.000000
 40
17.500000
  1
(106.5)
 50
0.000000
 41
1.242236
 51
0.000000
  7
TXT8
 72
     1
 11
-117.419430
 21
217.700000
 31
0.000000
100
AcDbText
 73
     0
  0
POINT
  5
563
100
AcDbEntity
  8
MASSE
  6
BYBLOCK
 62
     9
100
AcDbPoint
 10
-170.669430
 20
270.467445
  0
POINT
  5
564
100
AcDbEntity
  8
MASSE
  6
BYBLOCK
 62
     9
100
AcDbPoint
 10
-64.169430
 20
232.046530
  0
ENDBLK
  5
565
100
AcDbEntity
  8
0
100
AcDbBlockEnd
  0
BLOCK
  5
566
100
AcDbEntity
  8
MASSE
100
AcDbBlockBegin
  2
*D13
 70
    65
 10
0.000000
 20
0.000000
 30
0.000000
  3
*D
  0
LINE
  5
567
100
AcDbEntity
  8
MASSE
  6
BYBLOCK
 62
     3
100
AcDbLine
 10
-64.169427
 20
231.996533
 11
-64.169427
 21
201.000002
  0
LINE
  5
568
100
AcDbEntity
  8
MASSE
  6
BYBLOCK
 62
     3
100
AcDbLine
 10
-64.169427
 20
210.000002
 11
42.328812
 21
210.000002
  0
LINE
  5
569
100
AcDbEntity
  8
MASSE
  6
BYBLOCK
 62
     3
100
AcDbLine
 10
-54.169427
 20
207.750002
 11
-64.169427
 21
210.000002
  0
LINE
  5
56A
100
AcDbEntity
  8
MASSE
  6
BYBLOCK
 62
     3
100
AcDbLine
 10
-64.169427
 20
210.000002
 11
-54.169427
 21
212.250002
  0
LINE
  5
56B
100
AcDbEntity
  8
MASSE
  6
BYBLOCK
 62
     3
100
AcDbLine
 10
-54.169427
 20
212.250002
 11
-54.169427
 21
207.750002
  0
LINE
  5
56C
100
AcDbEntity
  8
MASSE
  6
BYBLOCK
 62
     3
100
AcDbLine
 10
32.328812
 20
212.250002
 11
42.328812
 21
210.000002
  0
LINE
  5
56D
100
AcDbEntity
  8
MASSE
  6
BYBLOCK
 62
     3
100
AcDbLine
 10
42.328812
 20
210.000002
 11
32.328812
 21
207.750002
  0
LINE
  5
56E
100
AcDbEntity
  8
MASSE
  6
BYBLOCK
 62
     3
100
AcDbLine
 10
32.328812
 20
207.750002
 11
32.328812
 21
212.250002
  0
LINE
  5
56F
100
AcDbEntity
  8
MASSE
  6
BYBLOCK
 62
     3
100
AcDbLine
 10
42.328812
 20
201.000002
 11
42.328812
 21
271.417363
  0
TEXT
  5
570
100
AcDbEntity
  8
MASSE
 62
     7
100
AcDbText
 10
-63.420310
 20
217.700000
 30
0.000000
 40
17.500000
  1
(106.5)
 50
0.000000
 41
1.242236
 51
0.000000
  7
TXT8
 72
     1
 11
-10.920310
 21
217.700000
 31
0.000000
100
AcDbText
 73
     0
  0
POINT
  5
571
100
AcDbEntity
  8
MASSE
  6
BYBLOCK
 62
     9
100
AcDbPoint
 10
-64.169430
 20
232.046530
  0
POINT
  5
572
100
AcDbEntity
  8
MASSE
  6
BYBLOCK
 62
     9
100
AcDbPoint
 10
42.328810
 20
271.467360
  0
ENDBLK
  5
573
100
AcDbEntity
  8
0
100
AcDbBlockEnd
  0
BLOCK
  5
574
100
AcDbEntity
  8
MASSE
100
AcDbBlockBegin
  2
*D14
 70
    65
 10
0.000000
 20
0.000000
 30
0.000000
  3
*D
  0
LINE
  5
575
100
AcDbEntity
  8
MASSE
  6
BYBLOCK
 62
     3
100
AcDbLine
 10
126.380608
 20
303.467362
 11
272.750013
 21
303.467362
  0
LINE
  5
576
100
AcDbEntity
  8
MASSE
  6
BYBLOCK
 62
     3
100
AcDbLine
 10
263.750013
 20
285.967362
 11
263.750013
 21
303.467362
  0
LINE
  5
577
100
AcDbEntity
  8
MASSE
  6
BYBLOCK
 62
     3
100
AcDbLine
 10
261.500013
 20
293.467362
 11
263.750013
 21
303.467362
  0
LINE
  5
578
100
AcDbEntity
  8
MASSE
  6
BYBLOCK
 62
     3
100
AcDbLine
 10
263.750013
 20
303.467362
 11
266.000013
 21
293.467362
  0
LINE
  5
579
100
AcDbEntity
  8
MASSE
  6
BYBLOCK
 62
     3
100
AcDbLine
 10
266.000013
 20
293.467362
 11
261.500013
 21
293.467362
  0
LINE
  5
57A
100
AcDbEntity
  8
MASSE
  6
BYBLOCK
 62
     3
100
AcDbLine
 10
263.750013
 20
303.467362
 11
263.750013
 21
309.967362
  0
LINE
  5
57B
100
AcDbEntity
  8
MASSE
  6
BYBLOCK
 62
     3
100
AcDbLine
 10
263.750013
 20
309.967362
 11
263.750013
 21
372.537128
  0
LINE
  5
57C
100
AcDbEntity
  8
MASSE
  6
BYBLOCK
 62
     3
100
AcDbLine
 10
266.000013
 20
319.967362
 11
263.750013
 21
309.967362
  0
LINE
  5
57D
100
AcDbEntity
  8
MASSE
  6
BYBLOCK
 62
     3
100
AcDbLine
 10
263.750013
 20
309.967362
 11
261.500013
 21
319.967362
  0
LINE
  5
57E
100
AcDbEntity
  8
MASSE
  6
BYBLOCK
 62
     3
100
AcDbLine
 10
261.500013
 20
319.967362
 11
266.000013
 21
319.967362
  0
LINE
  5
57F
100
AcDbEntity
  8
MASSE
  6
BYBLOCK
 62
     3
100
AcDbLine
 10
272.750013
 20
309.967362
 11
218.192658
 21
309.967362
  0
TEXT
  5
580
100
AcDbEntity
  8
MASSE
 62
     7
100
AcDbText
 10
256.050010
 20
331.138635
 30
0.000000
 40
17.500000
  1
6.5
 50
90.000000
 41
1.200000
 51
0.000000
  7
TXT8
 72
     1
 11
256.050010
 21
352.138635
 31
0.000000
100
AcDbText
 73
     0
  0
POINT
  5
581
100
AcDbEntity
  8
MASSE
  6
BYBLOCK
 62
     9
100
AcDbPoint
 10
126.330605
 20
303.467360
  0
POINT
  5
582
100
AcDbEntity
  8
MASSE
  6
BYBLOCK
 62
     9
100
AcDbPoint
 10
125.830570
 20
309.967360
  0
ENDBLK
  5
583
100
AcDbEntity
  8
0
100
AcDbBlockEnd
  0
BLOCK
  5
584
100
AcDbEntity
  8
MASSE
100
AcDbBlockBegin
  2
*D15
 70
    65
 10
0.000000
 20
0.000000
 30
0.000000
  3
*D
  0
LINE
  5
585
100
AcDbEntity
  8
MASSE
  6
BYBLOCK
 62
     3
100
AcDbLine
 10
103.613773
 20
291.967362
 11
212.750013
 21
291.967362
  0
LINE
  5
586
100
AcDbEntity
  8
MASSE
  6
BYBLOCK
 62
     3
100
AcDbLine
 10
203.750013
 20
223.273753
 11
203.750013
 21
291.967362
  0
LINE
  5
587
100
AcDbEntity
  8
MASSE
  6
BYBLOCK
 62
     3
100
AcDbLine
 10
201.500013
 20
281.967362
 11
203.750013
 21
291.967362
  0
LINE
  5
588
100
AcDbEntity
  8
MASSE
  6
BYBLOCK
 62
     3
100
AcDbLine
 10
203.750013
 20
291.967362
 11
206.000013
 21
281.967362
  0
LINE
  5
589
100
AcDbEntity
  8
MASSE
  6
BYBLOCK
 62
     3
100
AcDbLine
 10
206.000013
 20
281.967362
 11
201.500013
 21
281.967362
  0
LINE
  5
58A
100
AcDbEntity
  8
MASSE
  6
BYBLOCK
 62
     3
100
AcDbLine
 10
203.750013
 20
291.967362
 11
203.750013
 21
303.467362
  0
LINE
  5
58B
100
AcDbEntity
  8
MASSE
  6
BYBLOCK
 62
     3
100
AcDbLine
 10
203.750013
 20
303.467362
 11
203.750013
 21
345.000002
  0
LINE
  5
58C
100
AcDbEntity
  8
MASSE
  6
BYBLOCK
 62
     3
100
AcDbLine
 10
206.000013
 20
313.467362
 11
203.750013
 21
303.467362
  0
LINE
  5
58D
100
AcDbEntity
  8
MASSE
  6
BYBLOCK
 62
     3
100
AcDbLine
 10
203.750013
 20
303.467362
 11
201.500013
 21
313.467362
  0
LINE
  5
58E
100
AcDbEntity
  8
MASSE
  6
BYBLOCK
 62
     3
100
AcDbLine
 10
201.500013
 20
313.467362
 11
206.000013
 21
313.467362
  0
LINE
  5
58F
100
AcDbEntity
  8
MASSE
  6
BYBLOCK
 62
     3
100
AcDbLine
 10
212.750013
 20
303.467362
 11
126.380608
 21
303.467362
  0
TEXT
  5
590
100
AcDbEntity
  8
MASSE
 62
     7
100
AcDbText
 10
196.050010
 20
226.125000
 30
0.000000
 40
17.500000
  1
11.5
 50
90.000000
 41
1.410256
 51
0.000000
  7
TXT8
 72
     1
 11
196.050010
 21
255.000000
 31
0.000000
100
AcDbText
 73
     0
  0
POINT
  5
591
100
AcDbEntity
  8
MASSE
  6
BYBLOCK
 62
     9
100
AcDbPoint
 10
103.563770
 20
291.967360
  0
POINT
  5
592
100
AcDbEntity
  8
MASSE
  6
BYBLOCK
 62
     9
100
AcDbPoint
 10
126.330605
 20
303.467360
  0
ENDBLK
  5
593
100
AcDbEntity
  8
0
100
AcDbBlockEnd
  0
BLOCK
  5
594
100
AcDbEntity
  8
MASSE
100
AcDbBlockBegin
  2
*D16
 70
    65
 10
0.000000
 20
0.000000
 30
0.000000
  3
*D
  0
LINE
  5
595
100
AcDbEntity
  8
MASSE
  6
BYBLOCK
 62
     3
100
AcDbLine
 10
110.880563
 20
-45.980967
 11
212.750013
 21
-45.980967
  0
LINE
  5
596
100
AcDbEntity
  8
MASSE
  6
BYBLOCK
 62
     3
100
AcDbLine
 10
203.750013
 20
-63.480967
 11
203.750013
 21
-45.980967
  0
LINE
  5
597
100
AcDbEntity
  8
MASSE
  6
BYBLOCK
 62
     3
100
AcDbLine
 10
201.500013
 20
-55.980967
 11
203.750013
 21
-45.980967
  0
LINE
  5
598
100
AcDbEntity
  8
MASSE
  6
BYBLOCK
 62
     3
100
AcDbLine
 10
203.750013
 20
-45.980967
 11
206.000013
 21
-55.980967
  0
LINE
  5
599
100
AcDbEntity
  8
MASSE
  6
BYBLOCK
 62
     3
100
AcDbLine
 10
206.000013
 20
-55.980967
 11
201.500013
 21
-55.980967
  0
LINE
  5
59A
100
AcDbEntity
  8
MASSE
  6
BYBLOCK
 62
     3
100
AcDbLine
 10
203.750013
 20
-45.980967
 11
203.750013
 21
-32.980967
  0
LINE
  5
59B
100
AcDbEntity
  8
MASSE
  6
BYBLOCK
 62
     3
100
AcDbLine
 10
203.750013
 20
-32.980967
 11
203.750013
 21
38.625003
  0
LINE
  5
59C
100
AcDbEntity
  8
MASSE
  6
BYBLOCK
 62
     3
100
AcDbLine
 10
206.000013
 20
-22.980967
 11
203.750013
 21
-32.980967
  0
LINE
  5
59D
100
AcDbEntity
  8
MASSE
  6
BYBLOCK
 62
     3
100
AcDbLine
 10
203.750013
 20
-32.980967
 11
201.500013
 21
-22.980967
  0
LINE
  5
59E
100
AcDbEntity
  8
MASSE
  6
BYBLOCK
 62
     3
100
AcDbLine
 10
201.500013
 20
-22.980967
 11
206.000013
 21
-22.980967
  0
LINE
  5
59F
100
AcDbEntity
  8
MASSE
  6
BYBLOCK
 62
     3
100
AcDbLine
 10
212.750013
 20
-32.980967
 11
110.880563
 21
-32.980967
  0
TEXT
  5
5A0
100
AcDbEntity
  8
MASSE
 62
     7
100
AcDbText
 10
196.050010
 20
-6.000000
 30
0.000000
 40
17.500000
  1
%%C13
 50
90.000000
 41
1.025641
 51
0.000000
  7
TXT8
 72
     1
 11
196.050010
 21
15.000000
 31
0.000000
100
AcDbText
 73
     0
  0
POINT
  5
5A1
100
AcDbEntity
  8
MASSE
  6
BYBLOCK
 62
     9
100
AcDbPoint
 10
110.830560
 20
-45.980970
  0
POINT
  5
5A2
100
AcDbEntity
  8
MASSE
  6
BYBLOCK
 62
     9
100
AcDbPoint
 10
110.830560
 20
-32.980970
  0
ENDBLK
  5
5A3
100
AcDbEntity
  8
0
100
AcDbBlockEnd
  0
BLOCK
  5
5A5
100
AcDbEntity
  8
L
100
AcDbBlockBegin
  2
mass
 70
    66
 10
0.000000
 20
0.000000
 30
0.000000
  0
LINE
  5
5A6
100
AcDbEntity
  8
L
  6
CONTINUOUS
 62
     3
100
AcDbLine
 10
125.830570
 20
309.967360
 11
191.671805
 21
309.967360
  0
LINE
  5
5A7
100
AcDbEntity
  8
L
  6
CONTINUOUS
 62
     3
100
AcDbLine
 10
143.750010
 20
165.000000
 11
96.045905
 21
278.213835
  0
LINE
  5
5A8
100
AcDbEntity
  8
L
  6
CONTINUOUS
 62
     3
100
AcDbLine
 10
143.750010
 20
165.000000
 11
353.750010
 21
165.000000
  0
LINE
  5
5A9
100
AcDbEntity
  8
L
  6
CONTINUOUS
 62
     3
100
AcDbLine
 10
451.250005
 20
334.999995
 11
526.250015
 21
334.999975
  0
LINE
  5
5AA
100
AcDbEntity
  8
L
  6
CONTINUOUS
 62
     3
100
AcDbLine
 10
526.250015
 20
354.999975
 11
451.250005
 21
354.999995
  0
LINE
  5
5AB
100
AcDbEntity
  8
L
  6
CONTINUOUS
 62
     3
100
AcDbLine
 10
526.250015
 20
354.999990
 11
526.250015
 21
334.999990
  0
LINE
  5
5AC
100
AcDbEntity
  8
L
  6
CONTINUOUS
 62
     3
100
AcDbLine
 10
451.250010
 20
354.999995
 11
451.250010
 21
335.000000
  0
LINE
  5
5AD
100
AcDbEntity
  8
L
  6
CONTINUOUS
 62
     3
100
AcDbLine
 10
471.250010
 20
354.999990
 11
471.250005
 21
335.000000
  0
LINE
  5
5AE
100
AcDbEntity
  8
L
  6
CONTINUOUS
 62
     3
100
AcDbLine
 10
455.250000
 20
351.000000
 11
469.250000
 21
351.000005
  0
LINE
  5
5AF
100
AcDbEntity
  8
L
  6
CONTINUOUS
 62
     3
100
AcDbLine
 10
469.250000
 20
351.000005
 11
467.250005
 21
338.999990
  0
LINE
  5
5B0
100
AcDbEntity
  8
L
  6
CONTINUOUS
 62
     3
100
AcDbLine
 10
467.250005
 20
338.999990
 11
453.250005
 21
338.999990
  0
LINE
  5
5B1
100
AcDbEntity
  8
L
  6
CONTINUOUS
 62
     3
100
AcDbLine
 10
453.250005
 20
338.999990
 11
455.249995
 21
351.000005
  0
LINE
  5
5B2
100
AcDbEntity
  8
L
  6
CONTINUOUS
 62
     3
100
AcDbLine
 10
451.250010
 20
344.999995
 11
383.750015
 21
344.999990
  0
LINE
  5
5B3
100
AcDbEntity
  8
L
  6
CONTINUOUS
 62
     3
100
AcDbLine
 10
383.750015
 20
344.999995
 11
383.750010
 21
303.467360
  0
LINE
  5
5B4
100
AcDbEntity
  8
L
  6
CONTINUOUS
 62
     3
100
AcDbLine
 10
383.750010
 20
303.467360
 11
386.000010
 21
313.467360
  0
LINE
  5
5B5
100
AcDbEntity
  8
L
  6
CONTINUOUS
 62
     3
100
AcDbLine
 10
386.000010
 20
313.467360
 11
381.500010
 21
313.467360
  0
LINE
  5
5B6
100
AcDbEntity
  8
L
  6
CONTINUOUS
 62
     3
100
AcDbLine
 10
381.500010
 20
313.467360
 11
383.750010
 21
303.467360
  0
ARC
  5
5B7
100
AcDbEntity
  8
L
  6
CONTINUOUS
 62
     3
100
AcDbCircle
 10
-239.169430
 20
-39.480980
 40
25.000001
100
AcDbArc
 50
243.896120
 51
341.103901
  0
ARC
  5
5B8
100
AcDbEntity
  8
L
  6
CONTINUOUS
 62
     3
100
AcDbCircle
 10
110.830560
 20
-39.480980
 40
25.000000
100
AcDbArc
 50
198.896099
 51
296.103880
  0
ARC
  5
5B9
100
AcDbEntity
  8
L
  6
CONTINUOUS
 62
     3
100
AcDbCircle
 10
110.830560
 20
-199.480970
 40
21.999999
100
AcDbArc
 50
89.476257
 51
226.065614
  0
ARC
  5
5BA
100
AcDbEntity
  8
L
  6
CONTINUOUS
 62
     3
100
AcDbCircle
 10
-239.169430
 20
-199.480970
 40
28.999998
100
AcDbArc
 50
321.643410
 51
101.940545
  0
LINE
  5
5BB
100
AcDbEntity
  8
L
  6
CONTINUOUS
 62
     3
100
AcDbLine
 10
-239.169430
 20
-39.480980
 11
-211.167940
 21
-87.980980
  0
LINE
  5
5BC
100
AcDbEntity
  8
L
  6
CONTINUOUS
 62
     3
100
AcDbLine
 10
-211.167940
 20
-87.980980
 11
-366.850975
 21
-87.980980
  0
LINE
  5
5BD
100
AcDbEntity
  8
L
  6
CONTINUOUS
 62
     3
100
AcDbLine
 10
-226.669425
 20
-61.131630
 11
-223.617980
 21
-70.916885
  0
LINE
  5
5BE
100
AcDbEntity
  8
L
  6
CONTINUOUS
 62
     3
100
AcDbLine
 10
-223.617980
 20
-70.916885
 11
-219.720865
 21
-68.666885
  0
LINE
  5
5BF
100
AcDbEntity
  8
L
  6
CONTINUOUS
 62
     3
100
AcDbLine
 10
-219.720865
 20
-68.666885
 11
-226.669425
 21
-61.131630
  0
LINE
  5
5C0
100
AcDbEntity
  8
L
  6
CONTINUOUS
 62
     3
100
AcDbLine
 10
110.830560
 20
-39.480980
 11
82.829070
 21
-87.980980
  0
LINE
  5
5C1
100
AcDbEntity
  8
L
  6
CONTINUOUS
 62
     3
100
AcDbLine
 10
82.829070
 20
-87.980980
 11
202.540430
 21
-87.980980
  0
LINE
  5
5C2
100
AcDbEntity
  8
L
  6
CONTINUOUS
 62
     3
100
AcDbLine
 10
98.330560
 20
-61.131615
 11
91.382000
 21
-68.666870
  0
LINE
  5
5C3
100
AcDbEntity
  8
L
  6
CONTINUOUS
 62
     3
100
AcDbLine
 10
91.382000
 20
-68.666870
 11
95.279115
 21
-70.916870
  0
LINE
  5
5C4
100
AcDbEntity
  8
L
  6
CONTINUOUS
 62
     3
100
AcDbLine
 10
95.279115
 20
-70.916870
 11
98.330560
 21
-61.131615
  0
LINE
  5
5C5
100
AcDbEntity
  8
L
  6
CONTINUOUS
 62
     3
100
AcDbLine
 10
72.649645
 20
-151.480975
 11
202.540430
 21
-151.480975
  0
LINE
  5
5C6
100
AcDbEntity
  8
L
  6
CONTINUOUS
 62
     3
100
AcDbLine
 10
97.135245
 20
-182.263590
 11
92.670965
 21
-173.036850
  0
LINE
  5
5C7
100
AcDbEntity
  8
L
  6
CONTINUOUS
 62
     3
100
AcDbLine
 10
92.670965
 20
-173.036850
 11
89.149230
 21
-175.838165
  0
LINE
  5
5C8
100
AcDbEntity
  8
L
  6
CONTINUOUS
 62
     3
100
AcDbLine
 10
89.149230
 20
-175.838165
 11
97.135245
 21
-182.263590
  0
LINE
  5
5C9
100
AcDbEntity
  8
L
  6
CONTINUOUS
 62
     3
100
AcDbLine
 10
110.830560
 20
-199.480970
 11
72.649650
 21
-151.480975
  0
LINE
  5
5CA
100
AcDbEntity
  8
L
  6
CONTINUOUS
 62
     3
100
AcDbLine
 10
-366.850975
 20
-151.480975
 11
-211.456620
 21
-151.480975
  0
LINE
  5
5CB
100
AcDbEntity
  8
L
  6
CONTINUOUS
 62
     3
100
AcDbLine
 10
-211.456620
 20
-151.480975
 11
-239.169430
 21
-199.480970
  0
LINE
  5
5CC
100
AcDbEntity
  8
L
  6
CONTINUOUS
 62
     3
100
AcDbLine
 10
-224.669425
 20
-174.366240
 11
-217.720870
 21
-166.830985
  0
LINE
  5
5CD
100
AcDbEntity
  8
L
  6
CONTINUOUS
 62
     3
100
AcDbLine
 10
-217.720870
 20
-166.830985
 11
-221.617980
 21
-164.580985
  0
LINE
  5
5CE
100
AcDbEntity
  8
L
  6
CONTINUOUS
 62
     3
100
AcDbLine
 10
-221.617980
 20
-164.580985
 11
-224.669425
 21
-174.366240
  0
LINE
  5
5CF
100
AcDbEntity
  8
L
  6
CONTINUOUS
 62
     3
100
AcDbLine
 10
135.776435
 20
-39.480980
 11
193.120575
 21
-39.480980
  0
TEXT
  5
5D0
100
AcDbEntity
  8
L
 62
     7
100
AcDbText
 10
156.057330
 20
174.857245
 30
0.000000
 40
17.500000
  1
%%C 36
 50
0.000000
 41
0.899183
 51
0.000000
  7
TXT8
 72
     0
 11
156.057330
 21
192.357245
 31
0.000000
100
AcDbText
 73
     3
  0
TEXT
  5
5D1
100
AcDbEntity
  8
L
 62
     2
100
AcDbText
 10
227.593290
 20
175.409690
 30
0.000000
 40
12.500000
  1
erforderlich
 50
0.000000
 41
0.905714
 51
0.000000
  7
TXT8
 72
     0
 11
227.593290
 21
187.909690
 31
0.000000
100
AcDbText
 73
     3
  0
TEXT
  5
5D2
100
AcDbEntity
  8
L
 62
     2
100
AcDbText
 10
230.032685
 20
146.119685
 30
0.000000
 40
12.500000
  1
necessary
 50
0.000000
 41
0.832941
 51
0.000000
  7
TXT8
 72
     0
 11
230.032685
 21
158.619685
 31
0.000000
100
AcDbText
 73
     3
  0
TEXT
  5
5D3
100
AcDbEntity
  8
L
 62
     1
100
AcDbText
 10
482.107515
 20
337.581260
 30
0.000000
 40
14.000000
  1
0,2
 50
0.000000
 41
1.170960
 51
0.000000
  7
TXT8
 72
     1
 11
497.107515
 21
337.581260
 31
0.000000
100
AcDbText
 73
     0
  0
TEXT
  5
5D4
100
AcDbEntity
  8
L
 62
     7
100
AcDbText
 10
146.343100
 20
-83.245055
 30
0.000000
 40
17.500000
  1
R25
 50
0.000000
 41
0.898876
 51
0.000000
  7
TXT8
 72
     0
 11
146.343100
 21
-65.745055
 31
0.000000
100
AcDbText
 73
     3
  0
TEXT
  5
5D5
100
AcDbEntity
  8
L
 62
     7
100
AcDbText
 10
146.343100
 20
-148.433830
 30
0.000000
 40
17.500000
  1
R22
 50
0.000000
 41
0.898876
 51
0.000000
  7
TXT8
 72
     0
 11
146.343100
 21
-130.933830
 31
0.000000
100
AcDbText
 73
     3
  0
TEXT
  5
5D6
100
AcDbEntity
  8
L
 62
     7
100
AcDbText
 10
-358.467625
 20
-148.433830
 30
0.000000
 40
17.500000
  1
R29
 50
0.000000
 41
0.898876
 51
0.000000
  7
TXT8
 72
     0
 11
-358.467625
 21
-130.933830
 31
0.000000
100
AcDbText
 73
     3
  0
TEXT
  5
5D7
100
AcDbEntity
  8
L
 62
     7
100
AcDbText
 10
-358.467625
 20
-83.245055
 30
0.000000
 40
17.500000
  1
R25
 50
0.000000
 41
0.898876
 51
0.000000
  7
TXT8
 72
     0
 11
-358.467625
 21
-65.745055
 31
0.000000
100
AcDbText
 73
     3
  0
ENDBLK
  5
5D8
100
AcDbEntity
  8
0
100
AcDbBlockEnd
  0
BLOCK
  5
5D9
100
AcDbEntity
  8
L
100
AcDbBlockBegin
  2
rahmen
 70
    66
 10
0.000000
 20
0.000000
 30
0.000000
  0
LINE
  5
5DA
100
AcDbEntity
  8
L
  6
CONTINUOUS
 62
     6
100
AcDbLine
 10
-736.249980
 20
210.000000
 11
-706.249980
 21
210.000000
  0
LINE
  5
5DB
100
AcDbEntity
  8
L
  6
CONTINUOUS
 62
     6
100
AcDbLine
 10
-736.249980
 20
-518.749990
 11
736.250020
 21
-518.749990
  0
LINE
  5
5DC
100
AcDbEntity
  8
L
  6
CONTINUOUS
 62
     6
100
AcDbLine
 10
736.250020
 20
-518.749990
 11
736.250020
 21
518.750000
  0
LINE
  5
5DD
100
AcDbEntity
  8
L
  6
CONTINUOUS
 62
     6
100
AcDbLine
 10
736.250020
 20
518.750000
 11
-736.249980
 21
518.750000
  0
LINE
  5
5DE
100
AcDbEntity
  8
L
  6
CONTINUOUS
 62
     6
100
AcDbLine
 10
-736.249980
 20
518.750000
 11
-736.249980
 21
-518.749990
  0
LINE
  5
5DF
100
AcDbEntity
  8
L
  6
CONTINUOUS
 62
     6
100
AcDbLine
 10
742.500020
 20
-524.999990
 11
742.500020
 21
-506.249990
  0
LINE
  5
5E0
100
AcDbEntity
  8
L
  6
CONTINUOUS
 62
     6
100
AcDbLine
 10
742.500020
 20
506.250000
 11
742.500020
 21
525.000000
  0
LINE
  5
5E1
100
AcDbEntity
  8
L
  6
CONTINUOUS
 62
     6
100
AcDbLine
 10
742.500020
 20
525.000000
 11
723.750020
 21
525.000000
  0
LINE
  5
5E2
100
AcDbEntity
  8
L
  6
CONTINUOUS
 62
     6
100
AcDbLine
 10
-723.749980
 20
525.000000
 11
-742.499970
 21
525.000000
  0
LINE
  5
5E3
100
AcDbEntity
  8
L
  6
CONTINUOUS
 62
     6
100
AcDbLine
 10
-742.499970
 20
525.000000
 11
-742.499970
 21
506.250000
  0
LINE
  5
5E4
100
AcDbEntity
  8
L
  6
CONTINUOUS
 62
     6
100
AcDbLine
 10
-742.499970
 20
-506.249990
 11
-742.499970
 21
-524.999990
  0
LINE
  5
5E5
100
AcDbEntity
  8
L
  6
CONTINUOUS
 62
     6
100
AcDbLine
 10
-742.499970
 20
-524.999990
 11
-723.749980
 21
-524.999990
  0
LINE
  5
5E6
100
AcDbEntity
  8
L
  6
CONTINUOUS
 62
     6
100
AcDbLine
 10
723.750020
 20
-524.999990
 11
742.500020
 21
-524.999990
  0
LINE
  5
5E7
100
AcDbEntity
  8
L
  6
CONTINUOUS
 62
     6
100
AcDbLine
 10
267.500020
 20
-518.749990
 11
267.500020
 21
-488.749990
  0
LINE
  5
5E8
100
AcDbEntity
  8
L
  6
CONTINUOUS
 62
     6
100
AcDbLine
 10
267.500020
 20
488.750000
 11
267.500020
 21
518.750000
  0
LINE
  5
5E9
100
AcDbEntity
  8
L
  6
CONTINUOUS
 62
     6
100
AcDbLine
 10
-692.499980
 20
-488.749990
 11
-692.499980
 21
-518.749990
  0
LINE
  5
5EA
100
AcDbEntity
  8
L
  6
CONTINUOUS
 62
     6
100
AcDbLine
 10
-692.499980
 20
488.750000
 11
-692.499980
 21
518.750000
  0
LINE
  5
5EB
100
AcDbEntity
  8
L
  6
CONTINUOUS
 62
     6
100
AcDbLine
 10
-736.249980
 20
-153.749990
 11
-706.249980
 21
-153.749990
  0
LINE
  5
5EC
100
AcDbEntity
  8
L
  6
CONTINUOUS
 62
     6
100
AcDbLine
 10
-207.499980
 20
-518.749990
 11
-207.499980
 21
-488.749990
  0
LINE
  5
5ED
100
AcDbEntity
  8
L
  6
CONTINUOUS
 62
     6
100
AcDbLine
 10
-207.499980
 20
488.750000
 11
-207.499980
 21
518.750000
  0
LINE
  5
5EE
100
AcDbEntity
  8
L
  6
CONTINUOUS
 62
     2
100
AcDbLine
 10
706.250020
 20
-488.749990
 11
706.250020
 21
488.750000
  0
LINE
  5
5EF
100
AcDbEntity
  8
L
  6
CONTINUOUS
 62
     2
100
AcDbLine
 10
706.250020
 20
488.750000
 11
-706.249980
 21
488.750000
  0
LINE
  5
5F0
100
AcDbEntity
  8
L
  6
CONTINUOUS
 62
     2
100
AcDbLine
 10
-706.249980
 20
488.750000
 11
-706.249980
 21
-488.749990
  0
LINE
  5
5F1
100
AcDbEntity
  8
L
  6
CONTINUOUS
 62
     2
100
AcDbLine
 10
-706.249980
 20
-488.749990
 11
706.250020
 21
-488.749990
  0
LINE
  5
5F2
100
AcDbEntity
  8
L
  6
BORDER
 62
     4
100
AcDbLine
 10
-321.106325
 20
419.967360
 11
159.412920
 21
419.967360
  0
LINE
  5
5F3
100
AcDbEntity
  8
L
  6
BORDER
 62
     4
100
AcDbLine
 10
-64.169430
 20
232.046530
 11
-64.169430
 21
462.747540
  0
LINE
  5
5F4
100
AcDbEntity
  8
L
  6
BORDER
 62
     4
100
AcDbLine
 10
-64.169445
 20
137.309900
 11
-64.169420
 21
-384.152375
  0
LINE
  5
5F5
100
AcDbEntity
  8
L
  6
BORDER
 62
     4
100
AcDbLine
 10
-379.137395
 20
-119.480975
 11
222.814630
 21
-119.480975
  0
LINE
  5
5F6
100
AcDbEntity
  8
L
  6
CONTINUOUS
 62
     2
100
AcDbLine
 10
-486.038930
 20
-386.971690
 11
-486.038930
 21
-404.471660
  0
LINE
  5
5F7
100
AcDbEntity
  8
L
  6
CONTINUOUS
 62
     2
100
AcDbLine
 10
-496.038900
 20
-393.221660
 11
-496.038900
 21
-399.471660
  0
LINE
  5
5F8
100
AcDbEntity
  8
L
  6
CONTINUOUS
 62
     2
100
AcDbLine
 10
-536.038900
 20
-393.221660
 11
-536.038900
 21
-399.471660
  0
LINE
  5
5F9
100
AcDbEntity
  8
L
  6
CONTINUOUS
 62
     2
100
AcDbLine
 10
-586.038900
 20
-404.471660
 11
-586.038900
 21
-386.971690
  0
LINE
  5
5FA
100
AcDbEntity
  8
L
  6
CONTINUOUS
 62
     2
100
AcDbLine
 10
-576.038900
 20
-399.471660
 11
-576.038900
 21
-393.221660
  0
LINE
  5
5FB
100
AcDbEntity
  8
L
  6
CONTINUOUS
 62
     2
100
AcDbLine
 10
-566.038900
 20
-393.221660
 11
-566.038900
 21
-399.471660
  0
LINE
  5
5FC
100
AcDbEntity
  8
L
  6
CONTINUOUS
 62
     2
100
AcDbLine
 10
-556.038900
 20
-393.221660
 11
-556.038900
 21
-399.471660
  0
LINE
  5
5FD
100
AcDbEntity
  8
L
  6
CONTINUOUS
 62
     2
100
AcDbLine
 10
-546.038900
 20
-393.221660
 11
-546.038900
 21
-399.471660
  0
LINE
  5
5FE
100
AcDbEntity
  8
L
  6
CONTINUOUS
 62
     2
100
AcDbLine
 10
-526.038900
 20
-393.221660
 11
-526.038900
 21
-399.471660
  0
LINE
  5
5FF
100
AcDbEntity
  8
L
  6
CONTINUOUS
 62
     2
100
AcDbLine
 10
-516.038900
 20
-393.221660
 11
-516.038900
 21
-399.471660
  0
LINE
  5
600
100
AcDbEntity
  8
L
  6
CONTINUOUS
 62
     2
100
AcDbLine
 10
-506.038900
 20
-393.221660
 11
-506.038900
 21
-399.471660
  0
LINE
  5
601
100
AcDbEntity
  8
L
  6
CONTINUOUS
 62
     2
100
AcDbLine
 10
-476.038940
 20
-393.221660
 11
-476.038940
 21
-399.471660
  0
LINE
  5
602
100
AcDbEntity
  8
L
  6
CONTINUOUS
 62
     2
100
AcDbLine
 10
-466.038940
 20
-393.221660
 11
-466.038940
 21
-399.471660
  0
LINE
  5
603
100
AcDbEntity
  8
L
  6
CONTINUOUS
 62
     2
100
AcDbLine
 10
-456.038940
 20
-393.221660
 11
-456.038940
 21
-399.471660
  0
LINE
  5
604
100
AcDbEntity
  8
L
  6
CONTINUOUS
 62
     2
100
AcDbLine
 10
-446.038940
 20
-393.221660
 11
-446.038940
 21
-399.471660
  0
LINE
  5
605
100
AcDbEntity
  8
L
  6
CONTINUOUS
 62
     2
100
AcDbLine
 10
-436.038940
 20
-393.221660
 11
-436.038940
 21
-399.471660
  0
LINE
  5
606
100
AcDbEntity
  8
L
  6
CONTINUOUS
 62
     2
100
AcDbLine
 10
-426.038940
 20
-393.221660
 11
-426.038940
 21
-399.471660
  0
LINE
  5
607
100
AcDbEntity
  8
L
  6
CONTINUOUS
 62
     2
100
AcDbLine
 10
-416.038940
 20
-393.221660
 11
-416.038940
 21
-399.471660
  0
LINE
  5
608
100
AcDbEntity
  8
L
  6
CONTINUOUS
 62
     2
100
AcDbLine
 10
-406.038940
 20
-393.221660
 11
-406.038940
 21
-399.471660
  0
LINE
  5
609
100
AcDbEntity
  8
L
  6
CONTINUOUS
 62
     2
100
AcDbLine
 10
-396.038940
 20
-393.221660
 11
-396.038940
 21
-399.471660
  0
LINE
  5
60A
100
AcDbEntity
  8
L
  6
CONTINUOUS
 62
     2
100
AcDbLine
 10
-386.038940
 20
-386.971690
 11
-386.038940
 21
-404.471660
  0
LINE
  5
60B
100
AcDbEntity
  8
L
  6
CONTINUOUS
 62
     2
100
AcDbLine
 10
-586.038900
 20
-399.471660
 11
-386.038940
 21
-399.471660
  0
LINE
  5
60C
100
AcDbEntity
  8
L
  6
CONTINUOUS
 62
     2
100
AcDbLine
 10
-706.250000
 20
-473.749980
 11
-706.250000
 21
-473.749980
  0
LINE
  5
60D
100
AcDbEntity
  8
L
  6
CONTINUOUS
 62
     4
100
AcDbLine
 10
-706.250000
 20
-473.749980
 11
-207.500000
 21
-473.749980
  0
LINE
  5
60E
100
AcDbEntity
  8
L
  6
CONTINUOUS
 62
     2
100
AcDbLine
 10
-706.250000
 20
-458.749980
 11
-207.500000
 21
-458.749980
  0
LINE
  5
60F
100
AcDbEntity
  8
L
  6
CONTINUOUS
 62
     2
100
AcDbLine
 10
-207.500000
 20
-488.749980
 11
-207.500000
 21
-458.749980
  0
TEXT
  5
610
100
AcDbEntity
  8
L
 62
     3
100
AcDbText
 10
-589.163920
 20
-427.471685
 30
0.000000
 40
12.500000
  1
0
 50
0.000000
 41
1.200000
 51
0.000000
  7
TXT8
 72
     0
 11
-589.163920
 21
-414.971685
 31
0.000000
100
AcDbText
 73
     3
  0
TEXT
  5
611
100
AcDbEntity
  8
L
 62
     3
100
AcDbText
 10
-500.413920
 20
-427.471685
 30
0.000000
 40
12.500000
  1
100
 50
0.000000
 41
1.200000
 51
0.000000
  7
TXT8
 72
     0
 11
-500.413920
 21
-414.971685
 31
0.000000
100
AcDbText
 73
     3
  0
TEXT
  5
612
100
AcDbEntity
  8
L
 62
     3
100
AcDbText
 10
-400.460300
 20
-427.471685
 30
0.000000
 40
12.500000
  1
200
 50
0.000000
 41
1.030043
 51
0.000000
  7
TXT8
 72
     0
 11
-400.460300
 21
-414.971685
 31
0.000000
100
AcDbText
 73
     3
  0
TEXT
  5
613
100
AcDbEntity
  8
L
 62
     6
100
AcDbText
 10
-331.683775
 20
-467.749980
 30
0.000000
 40
6.250000
  1
modifications.
 50
0.000000
 41
1.028651
 51
0.000000
  7
TXT8
 72
     0
 11
-331.683775
 21
-461.499980
 31
0.000000
100
AcDbText
 73
     3
  0
TEXT
  5
614
100
AcDbEntity
  8
L
 62
     6
100
AcDbText
 10
-700.593750
 20
-482.749980
 30
0.000000
 40
6.250000
  1
Änderungen, die dem technischen Fortschritt dienen, behalten wir uns vor.
 50
0.000000
 41
0.908199
 51
0.000000
  7
TXT8
 72
     0
 11
-700.593750
 21
-476.499980
 31
0.000000
100
AcDbText
 73
     3
  0
TEXT
  5
615
100
AcDbEntity
  8
L
 62
     6
100
AcDbText
 10
-700.593750
 20
-467.749980
 30
0.000000
 40
6.250000
  1
In the interests of technical progress we reserve the right to introduce 
 50
0.000000
 41
0.862538
 51
0.000000
  7
TXT8
 72
     0
 11
-700.593750
 21
-461.499980
 31
0.000000
100
AcDbText
 73
     3
  0
ENDBLK
  5
616
100
AcDbEntity
  8
0
100
AcDbBlockEnd
  0
BLOCK
  5
617
100
AcDbEntity
  8
0
100
AcDbBlockBegin
  2
ZNr
 70
    66
 10
0.000000
 20
0.000000
 30
0.000000
  0
ENDBLK
  5
618
100
AcDbEntity
  8
0
100
AcDbBlockEnd
  0
BLOCK
  5
619
100
AcDbEntity
  8
L
100
AcDbBlockBegin
  2
datum1
 70
    66
 10
0.000000
 20
0.000000
 30
0.000000
  0
ENDBLK
  5
61A
100
AcDbEntity
  8
0
100
AcDbBlockEnd
  0
BLOCK
  5
61B
100
AcDbEntity
  8
L
100
AcDbBlockBegin
  2
datum2
 70
    66
 10
0.000000
 20
0.000000
 30
0.000000
  0
ENDBLK
  5
61C
100
AcDbEntity
  8
0
100
AcDbBlockEnd
  0
BLOCK
  5
61D
100
AcDbEntity
  8
L
100
AcDbBlockBegin
  2
datum3
 70
    66
 10
0.000000
 20
0.000000
 30
0.000000
  0
ENDBLK
  5
61E
100
AcDbEntity
  8
0
100
AcDbBlockEnd
  0
BLOCK
  5
61F
100
AcDbEntity
  8
L
100
AcDbBlockBegin
  2
datum4
 70
    66
 10
0.000000
 20
0.000000
 30
0.000000
  0
ENDBLK
  5
620
100
AcDbEntity
  8
0
100
AcDbBlockEnd
  0
BLOCK
  5
621
100
AcDbEntity
  8
L
100
AcDbBlockBegin
  2
datum5
 70
    66
 10
0.000000
 20
0.000000
 30
0.000000
  0
ENDBLK
  5
622
100
AcDbEntity
  8
0
100
AcDbBlockEnd
  0
BLOCK
  5
623
100
AcDbEntity
  8
L
100
AcDbBlockBegin
  2
datum6
 70
    66
 10
0.000000
 20
0.000000
 30
0.000000
  0
ENDBLK
  5
624
100
AcDbEntity
  8
0
100
AcDbBlockEnd
  0
BLOCK
  5
625
100
AcDbEntity
  8
L
100
AcDbBlockBegin
  2
datum7
 70
    66
 10
0.000000
 20
0.000000
 30
0.000000
  0
ENDBLK
  5
626
100
AcDbEntity
  8
0
100
AcDbBlockEnd
  0
BLOCK
  5
627
100
AcDbEntity
  8
L
100
AcDbBlockBegin
  2
index7
 70
    66
 10
0.000000
 20
0.000000
 30
0.000000
  0
ENDBLK
  5
628
100
AcDbEntity
  8
0
100
AcDbBlockEnd
  0
BLOCK
  5
629
100
AcDbEntity
  8
L
100
AcDbBlockBegin
  2
index1
 70
    66
 10
0.000000
 20
0.000000
 30
0.000000
  0
ENDBLK
  5
62A
100
AcDbEntity
  8
0
100
AcDbBlockEnd
  0
BLOCK
  5
62B
100
AcDbEntity
  8
L
100
AcDbBlockBegin
  2
name3
 70
    66
 10
0.000000
 20
0.000000
 30
0.000000
  0
ENDBLK
  5
62C
100
AcDbEntity
  8
0
100
AcDbBlockEnd
  0
BLOCK
  5
62D
100
AcDbEntity
  8
L
100
AcDbBlockBegin
  2
name5
 70
    66
 10
0.000000
 20
0.000000
 30
0.000000
  0
ENDBLK
  5
62E
100
AcDbEntity
  8
0
100
AcDbBlockEnd
  0
BLOCK
  5
62F
100
AcDbEntity
  8
L
100
AcDbBlockBegin
  2
name1
 70
    66
 10
0.000000
 20
0.000000
 30
0.000000
  0
ENDBLK
  5
630
100
AcDbEntity
  8
0
100
AcDbBlockEnd
  0
BLOCK
  5
631
100
AcDbEntity
  8
L
100
AcDbBlockBegin
  2
name7
 70
    66
 10
0.000000
 20
0.000000
 30
0.000000
  0
ENDBLK
  5
632
100
AcDbEntity
  8
0
100
AcDbBlockEnd
  0
BLOCK
  5
633
100
AcDbEntity
  8
L
100
AcDbBlockBegin
  2
nummer1
 70
    66
 10
0.000000
 20
0.000000
 30
0.000000
  0
ENDBLK
  5
634
100
AcDbEntity
  8
0
100
AcDbBlockEnd
  0
BLOCK
  5
635
100
AcDbEntity
  8
L
100
AcDbBlockBegin
  2
nummer7
 70
    66
 10
0.000000
 20
0.000000
 30
0.000000
  0
ENDBLK
  5
636
100
AcDbEntity
  8
0
100
AcDbBlockEnd
  0
BLOCK
  5
637
100
AcDbEntity
  8
L
100
AcDbBlockBegin
  2
name2
 70
    66
 10
0.000000
 20
0.000000
 30
0.000000
  0
ENDBLK
  5
638
100
AcDbEntity
  8
0
100
AcDbBlockEnd
  0
BLOCK
  5
639
100
AcDbEntity
  8
L
100
AcDbBlockBegin
  2
name4
 70
    66
 10
0.000000
 20
0.000000
 30
0.000000
  0
ENDBLK
  5
63A
100
AcDbEntity
  8
0
100
AcDbBlockEnd
  0
BLOCK
  5
63B
100
AcDbEntity
  8
L
100
AcDbBlockBegin
  2
name6
 70
    66
 10
0.000000
 20
0.000000
 30
0.000000
  0
ENDBLK
  5
63C
100
AcDbEntity
  8
0
100
AcDbBlockEnd
  0
BLOCK
  5
63D
100
AcDbEntity
  8
L
100
AcDbBlockBegin
  2
nummer2
 70
    66
 10
0.000000
 20
0.000000
 30
0.000000
  0
ENDBLK
  5
63E
100
AcDbEntity
  8
0
100
AcDbBlockEnd
  0
BLOCK
  5
63F
100
AcDbEntity
  8
L
100
AcDbBlockBegin
  2
nummer3
 70
    66
 10
0.000000
 20
0.000000
 30
0.000000
  0
ENDBLK
  5
640
100
AcDbEntity
  8
0
100
AcDbBlockEnd
  0
BLOCK
  5
641
100
AcDbEntity
  8
L
100
AcDbBlockBegin
  2
nummer4
 70
    66
 10
0.000000
 20
0.000000
 30
0.000000
  0
ENDBLK
  5
642
100
AcDbEntity
  8
0
100
AcDbBlockEnd
  0
BLOCK
  5
643
100
AcDbEntity
  8
L
100
AcDbBlockBegin
  2
nummer5
 70
    66
 10
0.000000
 20
0.000000
 30
0.000000
  0
ENDBLK
  5
644
100
AcDbEntity
  8
0
100
AcDbBlockEnd
  0
BLOCK
  5
645
100
AcDbEntity
  8
L
100
AcDbBlockBegin
  2
nummer6
 70
    66
 10
0.000000
 20
0.000000
 30
0.000000
  0
ENDBLK
  5
646
100
AcDbEntity
  8
0
100
AcDbBlockEnd
  0
BLOCK
  5
647
100
AcDbEntity
  8
L
100
AcDbBlockBegin
  2
index2
 70
    66
 10
0.000000
 20
0.000000
 30
0.000000
  0
ENDBLK
  5
648
100
AcDbEntity
  8
0
100
AcDbBlockEnd
  0
BLOCK
  5
649
100
AcDbEntity
  8
L
100
AcDbBlockBegin
  2
index3
 70
    66
 10
0.000000
 20
0.000000
 30
0.000000
  0
ENDBLK
  5
64A
100
AcDbEntity
  8
0
100
AcDbBlockEnd
  0
BLOCK
  5
64B
100
AcDbEntity
  8
L
100
AcDbBlockBegin
  2
index4
 70
    66
 10
0.000000
 20
0.000000
 30
0.000000
  0
ENDBLK
  5
64C
100
AcDbEntity
  8
0
100
AcDbBlockEnd
  0
BLOCK
  5
64D
100
AcDbEntity
  8
L
100
AcDbBlockBegin
  2
index5
 70
    66
 10
0.000000
 20
0.000000
 30
0.000000
  0
ENDBLK
  5
64E
100
AcDbEntity
  8
0
100
AcDbBlockEnd
  0
BLOCK
  5
64F
100
AcDbEntity
  8
L
100
AcDbBlockBegin
  2
index6
 70
    66
 10
0.000000
 20
0.000000
 30
0.000000
  0
ENDBLK
  5
650
100
AcDbEntity
  8
0
100
AcDbBlockEnd
  0
BLOCK
  5
651
100
AcDbEntity
  8
L
100
AcDbBlockBegin
  2
index8
 70
    66
 10
0.000000
 20
0.000000
 30
0.000000
  0
ENDBLK
  5
652
100
AcDbEntity
  8
0
100
AcDbBlockEnd
  0
BLOCK
  5
653
100
AcDbEntity
  8
L
100
AcDbBlockBegin
  2
index9
 70
    66
 10
0.000000
 20
0.000000
 30
0.000000
  0
ENDBLK
  5
654
100
AcDbEntity
  8
0
100
AcDbBlockEnd
  0
BLOCK
  5
655
100
AcDbEntity
  8
L
100
AcDbBlockBegin
  2
datum8
 70
    66
 10
0.000000
 20
0.000000
 30
0.000000
  0
ENDBLK
  5
656
100
AcDbEntity
  8
0
100
AcDbBlockEnd
  0
BLOCK
  5
657
100
AcDbEntity
  8
L
100
AcDbBlockBegin
  2
name8
 70
    66
 10
0.000000
 20
0.000000
 30
0.000000
  0
ENDBLK
  5
658
100
AcDbEntity
  8
0
100
AcDbBlockEnd
  0
BLOCK
  5
659
100
AcDbEntity
  8
L
100
AcDbBlockBegin
  2
name9
 70
    66
 10
0.000000
 20
0.000000
 30
0.000000
  0
ENDBLK
  5
65A
100
AcDbEntity
  8
0
100
AcDbBlockEnd
  0
BLOCK
  5
65B
100
AcDbEntity
  8
L
100
AcDbBlockBegin
  2
nummer8
 70
    66
 10
0.000000
 20
0.000000
 30
0.000000
  0
ENDBLK
  5
65C
100
AcDbEntity
  8
0
100
AcDbBlockEnd
  0
BLOCK
  5
65D
100
AcDbEntity
  8
L
100
AcDbBlockBegin
  2
nummer9
 70
    66
 10
0.000000
 20
0.000000
 30
0.000000
  0
ENDBLK
  5
65E
100
AcDbEntity
  8
0
100
AcDbBlockEnd
  0
BLOCK
  5
65F
100
AcDbEntity
  8
L
100
AcDbBlockBegin
  2
aend1
 70
    66
 10
0.000000
 20
0.000000
 30
0.000000
  0
ENDBLK
  5
660
100
AcDbEntity
  8
0
100
AcDbBlockEnd
  0
BLOCK
  5
661
100
AcDbEntity
  8
L
100
AcDbBlockBegin
  2
aend2
 70
    66
 10
0.000000
 20
0.000000
 30
0.000000
  0
ENDBLK
  5
662
100
AcDbEntity
  8
0
100
AcDbBlockEnd
  0
BLOCK
  5
663
100
AcDbEntity
  8
L
100
AcDbBlockBegin
  2
aend3
 70
    66
 10
0.000000
 20
0.000000
 30
0.000000
  0
ENDBLK
  5
664
100
AcDbEntity
  8
0
100
AcDbBlockEnd
  0
BLOCK
  5
665
100
AcDbEntity
  8
L
100
AcDbBlockBegin
  2
aend4
 70
    66
 10
0.000000
 20
0.000000
 30
0.000000
  0
ENDBLK
  5
666
100
AcDbEntity
  8
0
100
AcDbBlockEnd
  0
BLOCK
  5
667
100
AcDbEntity
  8
L
100
AcDbBlockBegin
  2
aend5
 70
    66
 10
0.000000
 20
0.000000
 30
0.000000
  0
ENDBLK
  5
668
100
AcDbEntity
  8
0
100
AcDbBlockEnd
  0
BLOCK
  5
669
100
AcDbEntity
  8
L
100
AcDbBlockBegin
  2
aend6
 70
    66
 10
0.000000
 20
0.000000
 30
0.000000
  0
ENDBLK
  5
66A
100
AcDbEntity
  8
0
100
AcDbBlockEnd
  0
BLOCK
  5
66B
100
AcDbEntity
  8
L
100
AcDbBlockBegin
  2
aend7
 70
    66
 10
0.000000
 20
0.000000
 30
0.000000
  0
ENDBLK
  5
66C
100
AcDbEntity
  8
0
100
AcDbBlockEnd
  0
BLOCK
  5
66D
100
AcDbEntity
  8
L
100
AcDbBlockBegin
  2
aend8
 70
    66
 10
0.000000
 20
0.000000
 30
0.000000
  0
ENDBLK
  5
66E
100
AcDbEntity
  8
0
100
AcDbBlockEnd
  0
BLOCK
  5
66F
100
AcDbEntity
  8
L
100
AcDbBlockBegin
  2
aend9
 70
    66
 10
0.000000
 20
0.000000
 30
0.000000
  0
ENDBLK
  5
670
100
AcDbEntity
  8
0
100
AcDbBlockEnd
  0
BLOCK
  5
671
100
AcDbEntity
  8
L
100
AcDbBlockBegin
  2
datum9
 70
    66
 10
0.000000
 20
0.000000
 30
0.000000
  0
ENDBLK
  5
672
100
AcDbEntity
  8
0
100
AcDbBlockEnd
  0
BLOCK
  5
673
100
AcDbEntity
  8
L
100
AcDbBlockBegin
  2
sk
 70
    66
 10
0.000000
 20
0.000000
 30
0.000000
  0
ENDBLK
  5
674
100
AcDbEntity
  8
0
100
AcDbBlockEnd
  0
BLOCK
  5
675
100
AcDbEntity
  8
L
100
AcDbBlockBegin
  2
B-314
 70
    66
 10
0.000000
 20
0.000000
 30
0.000000
  0
LINE
  5
676
100
AcDbEntity
  8
L
  6
CONTINUOUS
 62
     2
100
AcDbLine
 10
243.750055
 20
-488.749990
 11
243.750055
 21
-456.250000
  0
LINE
  5
677
100
AcDbEntity
  8
L
  6
CONTINUOUS
 62
     2
100
AcDbLine
 10
243.750055
 20
-456.250000
 11
338.750050
 21
-456.250000
  0
LINE
  5
678
100
AcDbEntity
  8
L
  6
CONTINUOUS
 62
     2
100
AcDbLine
 10
243.750055
 20
-456.250000
 11
243.750055
 21
-423.750000
  0
LINE
  5
679
100
AcDbEntity
  8
L
  6
CONTINUOUS
 62
     2
100
AcDbLine
 10
243.750055
 20
-423.750000
 11
338.750050
 21
-423.750000
  0
TEXT
  5
67A
100
AcDbEntity
  8
L
 62
     6
100
AcDbText
 10
246.211535
 20
-470.250015
 30
0.000000
 40
6.250000
  1
Schutzvermerk nach
 50
0.000000
 41
0.821143
 51
0.000000
  7
TXT8
 72
     0
 11
246.211535
 21
-470.250015
 31
0.000000
100
AcDbText
 73
     0
  0
TEXT
  5
67B
100
AcDbEntity
  8
L
 62
     6
100
AcDbText
 10
246.211535
 20
-482.000015
 30
0.000000
 40
6.250000
  1
 DIN 34 beachten
 50
0.000000
 41
0.840475
 51
0.000000
  7
TXT8
 72
     0
 11
246.211535
 21
-482.000015
 31
0.000000
100
AcDbText
 73
     0
  0
TEXT
  5
67C
100
AcDbEntity
  8
L
 62
     6
100
AcDbText
 10
254.433635
 20
-436.750615
 30
0.000000
 40
6.250000
  1
PROTECTION MARK
 50
0.000000
 41
0.832636
 51
0.000000
  7
TXT8
 72
     0
 11
254.433635
 21
-436.750615
 31
0.000000
100
AcDbText
 73
     0
  0
TEXT
  5
67D
100
AcDbEntity
  8
L
 62
     6
100
AcDbText
 10
254.433635
 20
-448.500615
 30
0.000000
 40
6.250000
  1
ACC.TO DIN 34
 50
0.000000
 41
0.884319
 51
0.000000
  7
TXT8
 72
     0
 11
254.433635
 21
-448.500615
 31
0.000000
100
AcDbText
 73
     0
  0
ENDBLK
  5
67E
100
AcDbEntity
  8
0
100
AcDbBlockEnd
  0
BLOCK
  5
67F
100
AcDbEntity
  8
0
100
AcDbBlockBegin
  2
Be1
 70
    66
 10
0.000000
 20
0.000000
 30
0.000000
  0
TEXT
  5
680
100
AcDbEntity
  8
0
 62
     2
100
AcDbText
 10
431.375020
 20
-408.950000
 30
0.000000
 40
17.500000
  1
Einbauzeichnung
 50
0.000000
 41
1.029641
 51
0.000000
  7
TXT8
 72
     0
 11
431.375020
 21
-391.450000
 31
0.000000
100
AcDbText
 73
     3
  0
ENDBLK
  5
681
100
AcDbEntity
  8
0
100
AcDbBlockEnd
  0
BLOCK
  5
682
100
AcDbEntity
  8
SCHRAFF
100
AcDbBlockBegin
  2
B-315
 70
    66
 10
0.000000
 20
0.000000
 30
0.000000
  0
HATCH
  5
683
100
AcDbEntity
  8
SCHRAFF
  6
CONTINUOUS
 62
     4
100
AcDbHatch
 10
0.000000
 20
0.000000
 30
0.000000
210
0.000000
220
0.000000
230
1.000000
  2
_U
 70
     0
 71
     1
 91
     8
 92
    18
 72
     1
 73
     0
 93
     6
 10
421.250020
 20
-441.249980
 42
0.000000
 10
421.250020
 20
-368.749990
 42
0.000000
 10
338.750030
 20
-368.750010
 42
0.000000
 10
338.750030
 20
-456.249990
 42
0.000000
 10
421.250020
 20
-456.249990
 42
0.000000
 10
421.250020
 20
-441.249980
 42
0.000000
 97
     0
 92
     2
 72
     1
 73
     0
 93
    31
 10
343.250020
 20
-423.999980
 42
0.000000
 10
350.500020
 20
-421.999980
 42
0.000000
 10
345.250020
 20
-420.249980
 42
0.000000
 10
352.500020
 20
-418.249980
 42
0.000000
 10
348.750020
 20
-416.499980
 42
0.000000
 10
352.500020
 20
-416.499980
 42
0.000000
 10
407.500020
 20
-416.499990
 42
0.000000
 10
411.250030
 20
-416.499980
 42
0.000000
 10
407.500030
 20
-418.249980
 42
0.000000
 10
414.750020
 20
-420.249980
 42
0.000000
 10
409.500030
 20
-421.999980
 42
0.000000
 10
416.750020
 20
-423.999980
 42
0.000000
 10
410.500030
 20
-425.749980
 42
0.000000
 10
417.750020
 20
-428.499990
 42
0.000000
 10
410.500020
 20
-431.250000
 42
0.000000
 10
416.750020
 20
-433.000000
 42
0.000000
 10
409.500020
 20
-435.000000
 42
0.000000
 10
414.750020
 20
-436.750000
 42
0.000000
 10
407.500020
 20
-438.750000
 42
0.000000
 10
411.250020
 20
-440.500000
 42
0.000000
 10
407.500020
 20
-440.500000
 42
0.000000
 10
352.500020
 20
-440.499990
 42
0.000000
 10
348.750030
 20
-440.499990
 42
0.000000
 10
352.500020
 20
-438.749990
 42
0.000000
 10
345.250020
 20
-436.749990
 42
0.000000
 10
350.500020
 20
-434.999990
 42
0.000000
 10
343.250020
 20
-432.999990
 42
0.000000
 10
349.500020
 20
-431.249990
 42
0.000000
 10
342.250020
 20
-428.499990
 42
0.000000
 10
349.500020
 20
-425.749980
 42
0.000000
 10
343.250020
 20
-423.999980
 42
0.000000
 97
     0
 92
     2
 72
     1
 73
     0
 93
     5
 10
354.327940
 20
-451.988170
 42
0.000000
 10
363.893170
 20
-451.988160
 42
0.000000
 10
363.893160
 20
-445.292510
 42
0.000000
 10
354.327940
 20
-445.292510
 42
0.000000
 10
354.327940
 20
-451.988170
 42
0.000000
 97
     0
 92
     2
 72
     1
 73
     0
 93
     5
 10
365.806200
 20
-445.292510
 42
0.000000
 10
365.806200
 20
-451.988170
 42
0.000000
 10
367.241000
 20
-451.988160
 42
0.000000
 10
367.240990
 20
-445.292510
 42
0.000000
 10
365.806210
 20
-445.292510
 42
0.000000
 97
     0
 92
     2
 72
     1
 73
     0
 93
    13
 10
369.154030
 20
-445.292510
 42
0.000000
 10
369.154030
 20
-451.988170
 42
0.000000
 10
377.762730
 20
-451.988150
 42
0.000000
 10
377.762730
 20
-450.553380
 42
0.000000
 10
370.588810
 20
-450.553380
 42
0.000000
 10
370.588810
 20
-449.357730
 42
0.000000
 10
377.762730
 20
-449.357730
 42
0.000000
 10
377.762730
 20
-447.922950
 42
0.000000
 10
370.588810
 20
-447.922950
 42
0.000000
 10
370.588810
 20
-446.727300
 42
0.000000
 10
377.762730
 20
-446.727300
 42
0.000000
 10
377.762730
 20
-445.292510
 42
0.000000
 10
369.154040
 20
-445.292500
 42
0.000000
 97
     0
 92
     2
 72
     1
 73
     0
 93
    13
 10
379.675770
 20
-445.292510
 42
0.000000
 10
379.675770
 20
-449.357730
 42
0.000000
 10
387.088810
 20
-449.357730
 42
0.000000
 10
387.088810
 20
-450.553380
 42
0.000000
 10
379.675770
 20
-450.553380
 42
0.000000
 10
379.675770
 20
-451.988170
 42
0.000000
 10
388.523600
 20
-451.988150
 42
0.000000
 10
388.523600
 20
-447.922950
 42
0.000000
 10
381.110550
 20
-447.922950
 42
0.000000
 10
381.110550
 20
-446.727300
 42
0.000000
 10
388.523600
 20
-446.727300
 42
0.000000
 10
388.523600
 20
-445.292510
 42
0.000000
 10
379.675770
 20
-445.292500
 42
0.000000
 97
     0
 92
     2
 72
     1
 73
     0
 93
    13
 10
390.675770
 20
-445.292510
 42
0.000000
 10
390.675770
 20
-451.988170
 42
0.000000
 10
398.806210
 20
-451.988150
 42
0.000000
 10
398.806200
 20
-450.553380
 42
0.000000
 10
392.110550
 20
-450.553380
 42
0.000000
 10
392.110550
 20
-449.357730
 42
0.000000
 10
398.806200
 20
-449.357730
 42
0.000000
 10
398.806200
 20
-447.922950
 42
0.000000
 10
392.110550
 20
-447.922950
 42
0.000000
 10
392.110550
 20
-446.727300
 42
0.000000
 10
398.806200
 20
-446.727300
 42
0.000000
 10
398.806200
 20
-445.292510
 42
0.000000
 10
390.675770
 20
-445.292500
 42
0.000000
 97
     0
 92
     2
 72
     1
 73
     0
 93
     7
 10
400.719250
 20
-445.292510
 42
0.000000
 10
400.719250
 20
-451.988170
 42
0.000000
 10
408.371430
 20
-451.988170
 42
0.000000
 10
408.371430
 20
-450.553380
 42
0.000000
 10
402.154040
 20
-450.553380
 42
0.000000
 10
402.154040
 20
-445.292510
 42
0.000000
 10
400.719250
 20
-445.292500
 42
0.000000
 97
     0
 75
     0
 76
     0
 52
0.000000
 41
1.000000
 77
     0
 78
     1
 53
0.000000
 43
-0.000000
 44
0.000000
 45
-0.000000
 46
0.225000
 79
     0
 98
     0
  0
HATCH
  5
684
100
AcDbEntity
  8
SCHRAFF
  6
CONTINUOUS
 62
     4
100
AcDbHatch
 10
0.000000
 20
0.000000
 30
0.000000
210
0.000000
220
0.000000
230
1.000000
  2
_U
 70
     0
 71
     1
 91
     1
 92
    18
 72
     1
 73
     0
 93
    13
 10
357.750020
 20
-421.499990
 42
0.000000
 10
357.750020
 20
-435.499990
 42
0.000000
 10
361.500030
 20
-435.499990
 42
0.000000
 10
361.500030
 20
-430.249990
 42
0.000000
 10
364.750030
 20
-430.249990
 42
0.000000
 10
364.750030
 20
-435.499990
 42
0.000000
 10
368.500020
 20
-435.499990
 42
0.000000
 10
368.500020
 20
-421.499990
 42
0.000000
 10
364.750030
 20
-421.499990
 42
0.000000
 10
364.750030
 20
-426.749990
 42
0.000000
 10
361.500030
 20
-426.749990
 42
0.000000
 10
361.500030
 20
-421.499990
 42
0.000000
 10
357.750020
 20
-421.499990
 42
0.000000
 97
     0
 75
     0
 76
     0
 52
0.000000
 41
1.000000
 77
     0
 78
     1
 53
0.000000
 43
-0.000000
 44
0.000000
 45
-0.000000
 46
0.225000
 79
     0
 98
     0
  0
HATCH
  5
685
100
AcDbEntity
  8
SCHRAFF
  6
CONTINUOUS
 62
     4
100
AcDbHatch
 10
0.000000
 20
0.000000
 30
0.000000
210
0.000000
220
0.000000
230
1.000000
  2
_U
 70
     0
 71
     1
 91
     2
 92
    18
 72
     1
 73
     0
 93
     9
 10
370.000020
 20
-435.499990
 42
0.000000
 10
373.750020
 20
-435.499990
 42
0.000000
 10
374.392880
 20
-433.499990
 42
0.000000
 10
378.107170
 20
-433.499990
 42
0.000000
 10
378.750020
 20
-435.499990
 42
0.000000
 10
382.500020
 20
-435.499990
 42
0.000000
 10
378.250020
 20
-421.499990
 42
0.000000
 10
374.250020
 20
-421.499990
 42
0.000000
 10
370.000020
 20
-435.499990
 42
0.000000
 97
     0
 92
     2
 72
     1
 73
     0
 93
     4
 10
377.223240
 20
-430.749990
 42
0.000000
 10
376.250020
 20
-427.722210
 42
0.000000
 10
375.276810
 20
-430.749990
 42
0.000000
 10
377.223240
 20
-430.749990
 42
0.000000
 97
     0
 75
     0
 76
     0
 52
0.000000
 41
1.000000
 77
     0
 78
     1
 53
0.000000
 43
-0.000000
 44
0.000000
 45
-0.000000
 46
0.225000
 79
     0
 98
     0
  0
HATCH
  5
686
100
AcDbEntity
  8
SCHRAFF
  6
CONTINUOUS
 62
     4
100
AcDbHatch
 10
0.000000
 20
0.000000
 30
0.000000
210
0.000000
220
0.000000
230
1.000000
  2
_U
 70
     0
 71
     1
 91
     1
 92
    18
 72
     1
 73
     0
 93
     9
 10
385.000020
 20
-424.999990
 42
0.000000
 10
385.000020
 20
-435.499990
 42
0.000000
 10
388.750020
 20
-435.499990
 42
0.000000
 10
388.750020
 20
-424.999990
 42
0.000000
 10
391.250030
 20
-424.999990
 42
0.000000
 10
391.250030
 20
-421.499990
 42
0.000000
 10
382.500020
 20
-421.499990
 42
0.000000
 10
382.500020
 20
-424.999990
 42
0.000000
 10
385.000020
 20
-424.999990
 42
0.000000
 97
     0
 75
     0
 76
     0
 52
0.000000
 41
1.000000
 77
     0
 78
     1
 53
0.000000
 43
-0.000000
 44
0.000000
 45
-0.000000
 46
0.225000
 79
     0
 98
     0
  0
HATCH
  5
687
100
AcDbEntity
  8
SCHRAFF
  6
CONTINUOUS
 62
     4
100
AcDbHatch
 10
0.000000
 20
0.000000
 30
0.000000
210
0.000000
220
0.000000
230
1.000000
  2
_U
 70
     0
 71
     1
 91
     1
 92
    18
 72
     1
 73
     0
 93
     9
 10
397.250030
 20
-424.999990
 42
0.000000
 10
392.250030
 20
-435.499990
 42
0.000000
 10
402.500020
 20
-435.499990
 42
0.000000
 10
402.500020
 20
-431.999990
 42
0.000000
 10
398.000020
 20
-431.999990
 42
0.000000
 10
403.000020
 20
-421.499990
 42
0.000000
 10
392.750020
 20
-421.499990
 42
0.000000
 10
392.750020
 20
-424.999990
 42
0.000000
 10
397.250030
 20
-424.999990
 42
0.000000
 97
     0
 75
     0
 76
     0
 52
0.000000
 41
1.000000
 77
     0
 78
     1
 53
0.000000
 43
-0.000000
 44
0.000000
 45
-0.000000
 46
0.225000
 79
     0
 98
     0
  0
HATCH
  5
688
100
AcDbEntity
  8
SCHRAFF
  6
CONTINUOUS
 62
     4
100
AcDbHatch
 10
0.000000
 20
0.000000
 30
0.000000
210
0.000000
220
0.000000
230
1.000000
  2
_U
 70
     0
 71
     1
 91
     1
 92
    18
 72
     1
 73
     0
 93
     5
 10
355.762730
 20
-450.553380
 42
0.000000
 10
362.458380
 20
-450.553380
 42
0.000000
 10
362.458380
 20
-446.727300
 42
0.000000
 10
355.762730
 20
-446.727300
 42
0.000000
 10
355.762730
 20
-450.553380
 42
0.000000
 97
     0
 75
     0
 76
     0
 52
0.000000
 41
1.000000
 77
     0
 78
     1
 53
0.000000
 43
-0.000000
 44
0.000000
 45
-0.000000
 46
0.225000
 79
     0
 98
     0
  0
LINE
  5
689
100
AcDbEntity
  8
L
  6
CONTINUOUS
 62
     2
100
AcDbLine
 10
421.250020
 20
-488.749990
 11
421.250020
 21
-456.249980
  0
LINE
  5
68A
100
AcDbEntity
  8
L
  6
CONTINUOUS
 62
     4
100
AcDbLine
 10
421.250020
 20
-473.749960
 11
706.250020
 21
-473.749960
  0
LINE
  5
68B
100
AcDbEntity
  8
L
  6
CONTINUOUS
 62
     3
100
AcDbLine
 10
342.250020
 20
-428.499980
 11
349.500020
 21
-431.249980
  0
LINE
  5
68C
100
AcDbEntity
  8
L
  6
CONTINUOUS
 62
     3
100
AcDbLine
 10
349.500020
 20
-431.249980
 11
343.250020
 21
-432.999980
  0
LINE
  5
68D
100
AcDbEntity
  8
L
  6
CONTINUOUS
 62
     3
100
AcDbLine
 10
343.250020
 20
-432.999980
 11
350.500020
 21
-434.999980
  0
LINE
  5
68E
100
AcDbEntity
  8
L
  6
CONTINUOUS
 62
     3
100
AcDbLine
 10
350.500020
 20
-434.999980
 11
345.250020
 21
-436.749980
  0
LINE
  5
68F
100
AcDbEntity
  8
L
  6
CONTINUOUS
 62
     3
100
AcDbLine
 10
345.250020
 20
-436.749980
 11
352.500020
 21
-438.749980
  0
LINE
  5
690
100
AcDbEntity
  8
L
  6
CONTINUOUS
 62
     3
100
AcDbLine
 10
352.500020
 20
-438.749980
 11
348.750020
 21
-440.499980
  0
LINE
  5
691
100
AcDbEntity
  8
L
  6
CONTINUOUS
 62
     3
100
AcDbLine
 10
348.750020
 20
-440.499980
 11
352.500020
 21
-440.499980
  0
LINE
  5
692
100
AcDbEntity
  8
L
  6
CONTINUOUS
 62
     3
100
AcDbLine
 10
352.500020
 20
-416.499970
 11
407.500020
 21
-416.499980
  0
LINE
  5
693
100
AcDbEntity
  8
L
  6
CONTINUOUS
 62
     3
100
AcDbLine
 10
407.500020
 20
-440.499990
 11
352.500020
 21
-440.499980
  0
LINE
  5
694
100
AcDbEntity
  8
L
  6
CONTINUOUS
 62
     3
100
AcDbLine
 10
342.250020
 20
-428.499970
 11
349.500020
 21
-425.749970
  0
LINE
  5
695
100
AcDbEntity
  8
L
  6
CONTINUOUS
 62
     3
100
AcDbLine
 10
349.500020
 20
-425.749970
 11
343.250020
 21
-423.999970
  0
LINE
  5
696
100
AcDbEntity
  8
L
  6
CONTINUOUS
 62
     3
100
AcDbLine
 10
343.250020
 20
-423.999970
 11
350.500020
 21
-421.999970
  0
LINE
  5
697
100
AcDbEntity
  8
L
  6
CONTINUOUS
 62
     3
100
AcDbLine
 10
350.500020
 20
-421.999970
 11
345.250020
 21
-420.249970
  0
LINE
  5
698
100
AcDbEntity
  8
L
  6
CONTINUOUS
 62
     3
100
AcDbLine
 10
345.250020
 20
-420.249970
 11
352.500020
 21
-418.249970
  0
LINE
  5
699
100
AcDbEntity
  8
L
  6
CONTINUOUS
 62
     3
100
AcDbLine
 10
352.500020
 20
-418.249970
 11
348.750020
 21
-416.499970
  0
LINE
  5
69A
100
AcDbEntity
  8
L
  6
CONTINUOUS
 62
     3
100
AcDbLine
 10
348.750020
 20
-416.499970
 11
352.500020
 21
-416.499970
  0
LINE
  5
69B
100
AcDbEntity
  8
L
  6
CONTINUOUS
 62
     2
100
AcDbLine
 10
338.750030
 20
-456.249980
 11
421.250020
 21
-456.249980
  0
LINE
  5
69C
100
AcDbEntity
  8
L
  6
CONTINUOUS
 62
     2
100
AcDbLine
 10
421.250020
 20
-368.750000
 11
338.750030
 21
-368.750000
  0
LINE
  5
69D
100
AcDbEntity
  8
L
  6
CONTINUOUS
 62
     3
100
AcDbLine
 10
357.750020
 20
-421.499980
 11
361.500030
 21
-421.499980
  0
LINE
  5
69E
100
AcDbEntity
  8
L
  6
CONTINUOUS
 62
     3
100
AcDbLine
 10
361.500030
 20
-421.499980
 11
361.500030
 21
-426.749980
  0
LINE
  5
69F
100
AcDbEntity
  8
L
  6
CONTINUOUS
 62
     3
100
AcDbLine
 10
361.500030
 20
-426.749980
 11
364.750030
 21
-426.749980
  0
LINE
  5
6A0
100
AcDbEntity
  8
L
  6
CONTINUOUS
 62
     3
100
AcDbLine
 10
364.750030
 20
-426.749980
 11
364.750030
 21
-421.499980
  0
LINE
  5
6A1
100
AcDbEntity
  8
L
  6
CONTINUOUS
 62
     3
100
AcDbLine
 10
364.750030
 20
-421.499980
 11
368.500020
 21
-421.499980
  0
LINE
  5
6A2
100
AcDbEntity
  8
L
  6
CONTINUOUS
 62
     3
100
AcDbLine
 10
368.500020
 20
-421.499980
 11
368.500020
 21
-435.499980
  0
LINE
  5
6A3
100
AcDbEntity
  8
L
  6
CONTINUOUS
 62
     3
100
AcDbLine
 10
368.500020
 20
-435.499980
 11
364.750030
 21
-435.499980
  0
LINE
  5
6A4
100
AcDbEntity
  8
L
  6
CONTINUOUS
 62
     3
100
AcDbLine
 10
364.750030
 20
-435.499980
 11
364.750030
 21
-430.249980
  0
LINE
  5
6A5
100
AcDbEntity
  8
L
  6
CONTINUOUS
 62
     3
100
AcDbLine
 10
364.750030
 20
-430.249980
 11
361.500030
 21
-430.249980
  0
LINE
  5
6A6
100
AcDbEntity
  8
L
  6
CONTINUOUS
 62
     3
100
AcDbLine
 10
361.500030
 20
-430.249980
 11
361.500030
 21
-435.499980
  0
LINE
  5
6A7
100
AcDbEntity
  8
L
  6
CONTINUOUS
 62
     3
100
AcDbLine
 10
361.500030
 20
-435.499980
 11
357.750020
 21
-435.499980
  0
LINE
  5
6A8
100
AcDbEntity
  8
L
  6
CONTINUOUS
 62
     3
100
AcDbLine
 10
357.750020
 20
-435.499980
 11
357.750020
 21
-421.499980
  0
LINE
  5
6A9
100
AcDbEntity
  8
L
  6
CONTINUOUS
 62
     3
100
AcDbLine
 10
370.000020
 20
-435.499980
 11
373.750020
 21
-435.499980
  0
LINE
  5
6AA
100
AcDbEntity
  8
L
  6
CONTINUOUS
 62
     3
100
AcDbLine
 10
370.000020
 20
-435.499980
 11
374.250020
 21
-421.499980
  0
LINE
  5
6AB
100
AcDbEntity
  8
L
  6
CONTINUOUS
 62
     3
100
AcDbLine
 10
374.250020
 20
-421.499980
 11
378.250020
 21
-421.499980
  0
LINE
  5
6AC
100
AcDbEntity
  8
L
  6
CONTINUOUS
 62
     3
100
AcDbLine
 10
378.250020
 20
-421.499980
 11
382.500020
 21
-435.499980
  0
LINE
  5
6AD
100
AcDbEntity
  8
L
  6
CONTINUOUS
 62
     3
100
AcDbLine
 10
382.500020
 20
-435.499980
 11
378.750020
 21
-435.499980
  0
LINE
  5
6AE
100
AcDbEntity
  8
L
  6
CONTINUOUS
 62
     3
100
AcDbLine
 10
378.750020
 20
-435.499980
 11
378.107170
 21
-433.499980
  0
LINE
  5
6AF
100
AcDbEntity
  8
L
  6
CONTINUOUS
 62
     3
100
AcDbLine
 10
377.223240
 20
-430.749980
 11
376.250020
 21
-427.722200
  0
LINE
  5
6B0
100
AcDbEntity
  8
L
  6
CONTINUOUS
 62
     3
100
AcDbLine
 10
373.750020
 20
-435.499980
 11
374.392880
 21
-433.499980
  0
LINE
  5
6B1
100
AcDbEntity
  8
L
  6
CONTINUOUS
 62
     3
100
AcDbLine
 10
375.276810
 20
-430.749980
 11
376.250020
 21
-427.722200
  0
LINE
  5
6B2
100
AcDbEntity
  8
L
  6
CONTINUOUS
 62
     3
100
AcDbLine
 10
374.392880
 20
-433.499980
 11
378.107170
 21
-433.499980
  0
LINE
  5
6B3
100
AcDbEntity
  8
L
  6
CONTINUOUS
 62
     3
100
AcDbLine
 10
375.276810
 20
-430.749980
 11
377.223240
 21
-430.749980
  0
LINE
  5
6B4
100
AcDbEntity
  8
L
  6
CONTINUOUS
 62
     3
100
AcDbLine
 10
382.500020
 20
-421.499980
 11
382.500020
 21
-424.999980
  0
LINE
  5
6B5
100
AcDbEntity
  8
L
  6
CONTINUOUS
 62
     3
100
AcDbLine
 10
382.500020
 20
-424.999980
 11
385.000020
 21
-424.999980
  0
LINE
  5
6B6
100
AcDbEntity
  8
L
  6
CONTINUOUS
 62
     3
100
AcDbLine
 10
385.000020
 20
-424.999980
 11
385.000020
 21
-435.499980
  0
LINE
  5
6B7
100
AcDbEntity
  8
L
  6
CONTINUOUS
 62
     3
100
AcDbLine
 10
385.000020
 20
-435.499980
 11
388.750020
 21
-435.499980
  0
LINE
  5
6B8
100
AcDbEntity
  8
L
  6
CONTINUOUS
 62
     3
100
AcDbLine
 10
388.750020
 20
-435.499980
 11
388.750020
 21
-424.999980
  0
LINE
  5
6B9
100
AcDbEntity
  8
L
  6
CONTINUOUS
 62
     3
100
AcDbLine
 10
388.750020
 20
-424.999980
 11
391.250030
 21
-424.999980
  0
LINE
  5
6BA
100
AcDbEntity
  8
L
  6
CONTINUOUS
 62
     3
100
AcDbLine
 10
391.250030
 20
-424.999980
 11
391.250030
 21
-421.499980
  0
LINE
  5
6BB
100
AcDbEntity
  8
L
  6
CONTINUOUS
 62
     3
100
AcDbLine
 10
391.250030
 20
-421.499980
 11
382.500020
 21
-421.499980
  0
LINE
  5
6BC
100
AcDbEntity
  8
L
  6
CONTINUOUS
 62
     3
100
AcDbLine
 10
392.750020
 20
-421.499980
 11
403.000020
 21
-421.499980
  0
LINE
  5
6BD
100
AcDbEntity
  8
L
  6
CONTINUOUS
 62
     3
100
AcDbLine
 10
392.750020
 20
-421.499980
 11
392.750020
 21
-424.999980
  0
LINE
  5
6BE
100
AcDbEntity
  8
L
  6
CONTINUOUS
 62
     3
100
AcDbLine
 10
392.750020
 20
-424.999980
 11
397.250030
 21
-424.999980
  0
LINE
  5
6BF
100
AcDbEntity
  8
L
  6
CONTINUOUS
 62
     3
100
AcDbLine
 10
397.250030
 20
-424.999980
 11
392.250030
 21
-435.499980
  0
LINE
  5
6C0
100
AcDbEntity
  8
L
  6
CONTINUOUS
 62
     3
100
AcDbLine
 10
392.250030
 20
-435.499980
 11
402.500020
 21
-435.499980
  0
LINE
  5
6C1
100
AcDbEntity
  8
L
  6
CONTINUOUS
 62
     3
100
AcDbLine
 10
402.500020
 20
-435.499980
 11
402.500020
 21
-431.999980
  0
LINE
  5
6C2
100
AcDbEntity
  8
L
  6
CONTINUOUS
 62
     3
100
AcDbLine
 10
402.500020
 20
-431.999980
 11
398.000020
 21
-431.999980
  0
LINE
  5
6C3
100
AcDbEntity
  8
L
  6
CONTINUOUS
 62
     3
100
AcDbLine
 10
398.000020
 20
-431.999980
 11
403.000020
 21
-421.499980
  0
LINE
  5
6C4
100
AcDbEntity
  8
L
  6
CONTINUOUS
 62
     3
100
AcDbLine
 10
417.750020
 20
-428.499980
 11
410.500020
 21
-431.249990
  0
LINE
  5
6C5
100
AcDbEntity
  8
L
  6
CONTINUOUS
 62
     3
100
AcDbLine
 10
410.500020
 20
-431.249990
 11
416.750020
 21
-432.999990
  0
LINE
  5
6C6
100
AcDbEntity
  8
L
  6
CONTINUOUS
 62
     3
100
AcDbLine
 10
416.750020
 20
-432.999990
 11
409.500020
 21
-434.999990
  0
LINE
  5
6C7
100
AcDbEntity
  8
L
  6
CONTINUOUS
 62
     3
100
AcDbLine
 10
409.500020
 20
-434.999990
 11
414.750020
 21
-436.749990
  0
LINE
  5
6C8
100
AcDbEntity
  8
L
  6
CONTINUOUS
 62
     3
100
AcDbLine
 10
414.750020
 20
-436.749990
 11
407.500020
 21
-438.749990
  0
LINE
  5
6C9
100
AcDbEntity
  8
L
  6
CONTINUOUS
 62
     3
100
AcDbLine
 10
407.500020
 20
-438.749990
 11
411.250020
 21
-440.499990
  0
LINE
  5
6CA
100
AcDbEntity
  8
L
  6
CONTINUOUS
 62
     3
100
AcDbLine
 10
411.250020
 20
-440.499990
 11
407.500020
 21
-440.499990
  0
LINE
  5
6CB
100
AcDbEntity
  8
L
  6
CONTINUOUS
 62
     3
100
AcDbLine
 10
417.750020
 20
-428.499980
 11
410.500030
 21
-425.749970
  0
LINE
  5
6CC
100
AcDbEntity
  8
L
  6
CONTINUOUS
 62
     3
100
AcDbLine
 10
410.500030
 20
-425.749970
 11
416.750020
 21
-423.999970
  0
LINE
  5
6CD
100
AcDbEntity
  8
L
  6
CONTINUOUS
 62
     3
100
AcDbLine
 10
416.750020
 20
-423.999970
 11
409.500030
 21
-421.999970
  0
LINE
  5
6CE
100
AcDbEntity
  8
L
  6
CONTINUOUS
 62
     3
100
AcDbLine
 10
409.500030
 20
-421.999970
 11
414.750020
 21
-420.249970
  0
LINE
  5
6CF
100
AcDbEntity
  8
L
  6
CONTINUOUS
 62
     3
100
AcDbLine
 10
414.750020
 20
-420.249970
 11
407.500030
 21
-418.249970
  0
LINE
  5
6D0
100
AcDbEntity
  8
L
  6
CONTINUOUS
 62
     3
100
AcDbLine
 10
407.500030
 20
-418.249970
 11
411.250030
 21
-416.499970
  0
LINE
  5
6D1
100
AcDbEntity
  8
L
  6
CONTINUOUS
 62
     3
100
AcDbLine
 10
411.250030
 20
-416.499970
 11
407.500030
 21
-416.499970
  0
LINE
  5
6D2
100
AcDbEntity
  8
L
  6
CONTINUOUS
 62
     3
100
AcDbLine
 10
354.327940
 20
-451.988160
 11
363.893170
 21
-451.988150
  0
LINE
  5
6D3
100
AcDbEntity
  8
L
  6
CONTINUOUS
 62
     3
100
AcDbLine
 10
365.806210
 20
-451.988150
 11
367.241000
 21
-451.988150
  0
LINE
  5
6D4
100
AcDbEntity
  8
L
  6
CONTINUOUS
 62
     3
100
AcDbLine
 10
369.154040
 20
-451.988150
 11
377.762730
 21
-451.988140
  0
LINE
  5
6D5
100
AcDbEntity
  8
L
  6
CONTINUOUS
 62
     3
100
AcDbLine
 10
379.675770
 20
-451.988140
 11
388.523600
 21
-451.988140
  0
LINE
  5
6D6
100
AcDbEntity
  8
L
  6
CONTINUOUS
 62
     3
100
AcDbLine
 10
390.675770
 20
-451.988140
 11
398.806210
 21
-451.988140
  0
LINE
  5
6D7
100
AcDbEntity
  8
L
  6
CONTINUOUS
 62
     3
100
AcDbLine
 10
400.719250
 20
-451.988150
 11
408.371430
 21
-451.988160
  0
LINE
  5
6D8
100
AcDbEntity
  8
L
  6
CONTINUOUS
 62
     3
100
AcDbLine
 10
363.893160
 20
-451.988160
 11
363.893160
 21
-445.292500
  0
LINE
  5
6D9
100
AcDbEntity
  8
L
  6
CONTINUOUS
 62
     3
100
AcDbLine
 10
402.154040
 20
-445.292500
 11
400.719250
 21
-445.292490
  0
LINE
  5
6DA
100
AcDbEntity
  8
L
  6
CONTINUOUS
 62
     3
100
AcDbLine
 10
398.806210
 20
-445.292490
 11
390.675770
 21
-445.292490
  0
LINE
  5
6DB
100
AcDbEntity
  8
L
  6
CONTINUOUS
 62
     3
100
AcDbLine
 10
388.523600
 20
-445.292490
 11
379.675770
 21
-445.292490
  0
LINE
  5
6DC
100
AcDbEntity
  8
L
  6
CONTINUOUS
 62
     3
100
AcDbLine
 10
377.762730
 20
-445.292490
 11
369.154040
 21
-445.292490
  0
LINE
  5
6DD
100
AcDbEntity
  8
L
  6
CONTINUOUS
 62
     3
100
AcDbLine
 10
367.241000
 20
-445.292490
 11
365.806210
 21
-445.292500
  0
LINE
  5
6DE
100
AcDbEntity
  8
L
  6
CONTINUOUS
 62
     3
100
AcDbLine
 10
363.893170
 20
-445.292500
 11
354.327940
 21
-445.292500
  0
LINE
  5
6DF
100
AcDbEntity
  8
L
  6
CONTINUOUS
 62
     3
100
AcDbLine
 10
354.327940
 20
-445.292500
 11
354.327940
 21
-451.988160
  0
LINE
  5
6E0
100
AcDbEntity
  8
L
  6
CONTINUOUS
 62
     3
100
AcDbLine
 10
355.762730
 20
-446.727290
 11
355.762730
 21
-450.553370
  0
LINE
  5
6E1
100
AcDbEntity
  8
L
  6
CONTINUOUS
 62
     3
100
AcDbLine
 10
355.762730
 20
-450.553370
 11
362.458380
 21
-450.553370
  0
LINE
  5
6E2
100
AcDbEntity
  8
L
  6
CONTINUOUS
 62
     3
100
AcDbLine
 10
362.458380
 20
-450.553370
 11
362.458380
 21
-446.727290
  0
LINE
  5
6E3
100
AcDbEntity
  8
L
  6
CONTINUOUS
 62
     3
100
AcDbLine
 10
362.458380
 20
-446.727290
 11
355.762730
 21
-446.727290
  0
LINE
  5
6E4
100
AcDbEntity
  8
L
  6
CONTINUOUS
 62
     3
100
AcDbLine
 10
365.806200
 20
-445.292500
 11
365.806200
 21
-451.988160
  0
LINE
  5
6E5
100
AcDbEntity
  8
L
  6
CONTINUOUS
 62
     3
100
AcDbLine
 10
367.240990
 20
-451.988160
 11
367.240990
 21
-445.292500
  0
LINE
  5
6E6
100
AcDbEntity
  8
L
  6
CONTINUOUS
 62
     3
100
AcDbLine
 10
377.762730
 20
-445.292500
 11
377.762730
 21
-446.727290
  0
LINE
  5
6E7
100
AcDbEntity
  8
L
  6
CONTINUOUS
 62
     3
100
AcDbLine
 10
377.762730
 20
-446.727290
 11
370.588810
 21
-446.727290
  0
LINE
  5
6E8
100
AcDbEntity
  8
L
  6
CONTINUOUS
 62
     3
100
AcDbLine
 10
370.588810
 20
-446.727290
 11
370.588810
 21
-447.922940
  0
LINE
  5
6E9
100
AcDbEntity
  8
L
  6
CONTINUOUS
 62
     3
100
AcDbLine
 10
370.588810
 20
-447.922940
 11
377.762730
 21
-447.922940
  0
LINE
  5
6EA
100
AcDbEntity
  8
L
  6
CONTINUOUS
 62
     3
100
AcDbLine
 10
377.762730
 20
-447.922940
 11
377.762730
 21
-449.357720
  0
LINE
  5
6EB
100
AcDbEntity
  8
L
  6
CONTINUOUS
 62
     3
100
AcDbLine
 10
377.762730
 20
-449.357720
 11
370.588810
 21
-449.357720
  0
LINE
  5
6EC
100
AcDbEntity
  8
L
  6
CONTINUOUS
 62
     3
100
AcDbLine
 10
370.588810
 20
-449.357720
 11
370.588810
 21
-450.553370
  0
LINE
  5
6ED
100
AcDbEntity
  8
L
  6
CONTINUOUS
 62
     3
100
AcDbLine
 10
370.588810
 20
-450.553370
 11
377.762730
 21
-450.553370
  0
LINE
  5
6EE
100
AcDbEntity
  8
L
  6
CONTINUOUS
 62
     3
100
AcDbLine
 10
377.762730
 20
-450.553370
 11
377.762730
 21
-451.988160
  0
LINE
  5
6EF
100
AcDbEntity
  8
L
  6
CONTINUOUS
 62
     3
100
AcDbLine
 10
369.154030
 20
-451.988160
 11
369.154030
 21
-445.292500
  0
LINE
  5
6F0
100
AcDbEntity
  8
L
  6
CONTINUOUS
 62
     3
100
AcDbLine
 10
388.523600
 20
-445.292500
 11
388.523600
 21
-446.727290
  0
LINE
  5
6F1
100
AcDbEntity
  8
L
  6
CONTINUOUS
 62
     3
100
AcDbLine
 10
388.523600
 20
-446.727290
 11
381.110550
 21
-446.727290
  0
LINE
  5
6F2
100
AcDbEntity
  8
L
  6
CONTINUOUS
 62
     3
100
AcDbLine
 10
381.110550
 20
-446.727290
 11
381.110550
 21
-447.922940
  0
LINE
  5
6F3
100
AcDbEntity
  8
L
  6
CONTINUOUS
 62
     3
100
AcDbLine
 10
381.110550
 20
-447.922940
 11
388.523600
 21
-447.922940
  0
LINE
  5
6F4
100
AcDbEntity
  8
L
  6
CONTINUOUS
 62
     3
100
AcDbLine
 10
388.523600
 20
-447.922940
 11
388.523600
 21
-451.988160
  0
LINE
  5
6F5
100
AcDbEntity
  8
L
  6
CONTINUOUS
 62
     3
100
AcDbLine
 10
379.675770
 20
-451.988160
 11
379.675770
 21
-450.553370
  0
LINE
  5
6F6
100
AcDbEntity
  8
L
  6
CONTINUOUS
 62
     3
100
AcDbLine
 10
379.675770
 20
-450.553370
 11
387.088810
 21
-450.553370
  0
LINE
  5
6F7
100
AcDbEntity
  8
L
  6
CONTINUOUS
 62
     3
100
AcDbLine
 10
387.088810
 20
-450.553370
 11
387.088810
 21
-449.357720
  0
LINE
  5
6F8
100
AcDbEntity
  8
L
  6
CONTINUOUS
 62
     3
100
AcDbLine
 10
387.088810
 20
-449.357720
 11
379.675770
 21
-449.357720
  0
LINE
  5
6F9
100
AcDbEntity
  8
L
  6
CONTINUOUS
 62
     3
100
AcDbLine
 10
379.675770
 20
-449.357720
 11
379.675770
 21
-445.292500
  0
LINE
  5
6FA
100
AcDbEntity
  8
L
  6
CONTINUOUS
 62
     3
100
AcDbLine
 10
398.806200
 20
-445.292500
 11
398.806200
 21
-446.727290
  0
LINE
  5
6FB
100
AcDbEntity
  8
L
  6
CONTINUOUS
 62
     3
100
AcDbLine
 10
398.806200
 20
-446.727290
 11
392.110550
 21
-446.727290
  0
LINE
  5
6FC
100
AcDbEntity
  8
L
  6
CONTINUOUS
 62
     3
100
AcDbLine
 10
392.110550
 20
-446.727290
 11
392.110550
 21
-447.922940
  0
LINE
  5
6FD
100
AcDbEntity
  8
L
  6
CONTINUOUS
 62
     3
100
AcDbLine
 10
392.110550
 20
-447.922940
 11
398.806200
 21
-447.922940
  0
LINE
  5
6FE
100
AcDbEntity
  8
L
  6
CONTINUOUS
 62
     3
100
AcDbLine
 10
398.806200
 20
-447.922940
 11
398.806200
 21
-449.357720
  0
LINE
  5
6FF
100
AcDbEntity
  8
L
  6
CONTINUOUS
 62
     3
100
AcDbLine
 10
398.806200
 20
-449.357720
 11
392.110550
 21
-449.357720
  0
LINE
  5
700
100
AcDbEntity
  8
L
  6
CONTINUOUS
 62
     3
100
AcDbLine
 10
392.110550
 20
-449.357720
 11
392.110550
 21
-450.553370
  0
LINE
  5
701
100
AcDbEntity
  8
L
  6
CONTINUOUS
 62
     3
100
AcDbLine
 10
392.110550
 20
-450.553370
 11
398.806200
 21
-450.553370
  0
LINE
  5
702
100
AcDbEntity
  8
L
  6
CONTINUOUS
 62
     3
100
AcDbLine
 10
398.806200
 20
-450.553370
 11
398.806200
 21
-451.988160
  0
LINE
  5
703
100
AcDbEntity
  8
L
  6
CONTINUOUS
 62
     3
100
AcDbLine
 10
390.675770
 20
-451.988160
 11
390.675770
 21
-445.292500
  0
LINE
  5
704
100
AcDbEntity
  8
L
  6
CONTINUOUS
 62
     3
100
AcDbLine
 10
400.719250
 20
-445.292500
 11
400.719250
 21
-451.988160
  0
LINE
  5
705
100
AcDbEntity
  8
L
  6
CONTINUOUS
 62
     3
100
AcDbLine
 10
408.371430
 20
-451.988160
 11
408.371430
 21
-450.553370
  0
LINE
  5
706
100
AcDbEntity
  8
L
  6
CONTINUOUS
 62
     3
100
AcDbLine
 10
408.371430
 20
-450.553370
 11
402.154040
 21
-450.553370
  0
LINE
  5
707
100
AcDbEntity
  8
L
  6
CONTINUOUS
 62
     3
100
AcDbLine
 10
402.154040
 20
-450.553370
 11
402.154040
 21
-445.292500
  0
LINE
  5
708
100
AcDbEntity
  8
L
  6
CONTINUOUS
 62
     2
100
AcDbLine
 10
338.750020
 20
-368.749980
 11
338.750030
 21
-456.249980
  0
LINE
  5
709
100
AcDbEntity
  8
L
  6
CONTINUOUS
 62
     2
100
AcDbLine
 10
421.250020
 20
-456.249980
 11
421.250020
 21
-368.749980
  0
LINE
  5
70A
100
AcDbEntity
  8
L
  6
CONTINUOUS
 62
     2
100
AcDbLine
 10
338.750050
 20
-456.250000
 11
338.750050
 21
-488.749990
  0
LINE
  5
70B
100
AcDbEntity
  8
L
  6
CONTINUOUS
 62
     2
100
AcDbLine
 10
421.250020
 20
-368.749980
 11
706.250020
 21
-368.749980
  0
TEXT
  5
70C
100
AcDbEntity
  8
L
 62
     3
100
AcDbText
 10
344.145430
 20
-465.643665
 30
0.000000
 40
6.250000
  1
MOTORENFABRIK
 50
0.000000
 41
0.923825
 51
0.000000
  7
TXT8
 72
     0
 11
344.145430
 21
-465.643665
 31
0.000000
100
AcDbText
 73
     0
  0
TEXT
  5
70D
100
AcDbEntity
  8
L
 62
     3
100
AcDbText
 10
344.145430
 20
-474.393665
 30
0.000000
 40
6.250000
  1
     HATZ
 50
0.000000
 41
0.899654
 51
0.000000
  7
TXT8
 72
     0
 11
344.145430
 21
-474.393665
 31
0.000000
100
AcDbText
 73
     0
  0
TEXT
  5
70E
100
AcDbEntity
  8
L
 62
     3
100
AcDbText
 10
344.145430
 20
-483.143665
 30
0.000000
 40
6.250000
  1
RUHSTORF-ROTT
 50
0.000000
 41
0.899763
 51
0.000000
  7
TXT8
 72
     0
 11
344.145430
 21
-483.143665
 31
0.000000
100
AcDbText
 73
     0
  0
TEXT
  5
70F
100
AcDbEntity
  8
L
 62
     3
100
AcDbText
 10
430.062530
 20
-386.750015
 30
0.000000
 40
12.500000
  1
INSTALLATION DRAWING
 50
0.000000
 41
0.841136
 51
0.000000
  7
TXT8
 72
     0
 11
430.062530
 21
-374.250015
 31
0.000000
100
AcDbText
 73
     3
  0
ENDBLK
  5
710
100
AcDbEntity
  8
0
100
AcDbBlockEnd
  0
BLOCK
  5
711
100
AcDbEntity
  8
L
100
AcDbBlockBegin
  2
B-316
 70
    66
 10
0.000000
 20
0.000000
 30
0.000000
  0
LINE
  5
712
100
AcDbEntity
  8
L
  6
CONTINUOUS
 62
     4
100
AcDbLine
 10
546.250020
 20
-473.749935
 11
546.250020
 21
-488.749935
  0
TEXT
  5
713
100
AcDbEntity
  8
L
 62
     6
100
AcDbText
 10
429.500050
 20
-482.749995
 30
0.000000
 40
6.250000
  1
gez.:
 50
0.000000
 41
1.189189
 51
0.000000
  7
TXT8
 72
     0
 11
429.500050
 21
-476.499995
 31
0.000000
100
AcDbText
 73
     3
  0
TEXT
  5
714
100
AcDbEntity
  8
L
 62
     6
100
AcDbText
 10
554.125045
 20
-482.749944
 30
0.000000
 40
6.249965
  1
gepr.:
 50
0.000000
 41
0.969971
 51
0.000000
  7
TXT8
 72
     0
 11
554.125045
 21
-476.499979
 31
0.000000
100
AcDbText
 73
     3
  0
TEXT
  5
715
100
AcDbEntity
  8
L
 62
     4
100
AcDbText
 10
429.668770
 20
-471.349975
 30
0.000000
 40
8.750000
  1
Blatt 6  von  14 Blättern
 50
0.000000
 41
0.886895
 51
0.000000
  7
TXT8
 72
     0
 11
429.668770
 21
-462.599975
 31
0.000000
100
AcDbText
 73
     3
  0
TEXT
  5
716
100
AcDbEntity
  8
L
 62
     4
100
AcDbText
 10
429.687520
 20
-458.749975
 30
0.000000
 40
6.250000
  1
SHEET     OF      SHEETS
 50
0.000000
 41
0.899873
 51
0.000000
  7
TXT8
 72
     0
 11
429.687520
 21
-452.499975
 31
0.000000
100
AcDbText
 73
     3
  0
TEXT
  5
717
100
AcDbEntity
  8
L
 62
     4
100
AcDbText
 10
553.785432
 20
-426.409845
 30
0.000000
 40
8.750000
  1
ENGINE MOUNTING
 50
0.000000
 41
0.852248
 51
0.000000
  7
TXT8
 72
     0
 11
553.785432
 21
-417.659845
 31
0.000000
100
AcDbText
 73
     3
  0
ENDBLK
  5
718
100
AcDbEntity
  8
0
100
AcDbBlockEnd
  0
BLOCK
  5
719
100
AcDbEntity
  8
0
100
AcDbBlockBegin
  2
Be2
 70
    66
 10
0.000000
 20
0.000000
 30
0.000000
  0
TEXT
  5
71A
100
AcDbEntity
  8
0
 62
     3
100
AcDbText
 10
541.185113
 20
-445.747425
 30
0.000000
 40
12.500000
  1
Motorbefestigung
 50
0.000000
 41
0.859744
 51
0.000000
  7
TXT8
 72
     0
 11
541.185113
 21
-433.247425
 31
0.000000
100
AcDbText
 73
     3
  0
ENDBLK
  5
71B
100
AcDbEntity
  8
0
100
AcDbBlockEnd
  0
BLOCK
  5
71C
100
AcDbEntity
  8
0
100
AcDbBlockBegin
  2
Be3
 70
    66
 10
0.000000
 20
0.000000
 30
0.000000
  0
TEXT
  5
71D
100
AcDbEntity
  8
0
 62
     2
100
AcDbText
 10
429.650019
 20
-439.429788
 30
0.000000
 40
14.999995
  1
1D41-42S/Z
 50
0.000000
 41
0.785793
 51
0.000000
  7
TXT8
 72
     0
 11
429.650019
 21
-424.429793
 31
0.000000
100
AcDbText
 73
     3
  0
ENDBLK
  5
71E
100
AcDbEntity
  8
0
100
AcDbBlockEnd
  0
BLOCK
  5
71F
100
AcDbEntity
  8
0
100
AcDbBlockBegin
  2
DatErst1
 70
    66
 10
0.000000
 20
0.000000
 30
0.000000
  0
TEXT
  5
720
100
AcDbEntity
  8
0
 62
     6
100
AcDbText
 10
457.850400
 20
-483.377975
 30
0.000000
 40
6.250000
  1
21.10.16
 50
0.000000
 41
1.253385
 51
0.000000
  7
TXT8
 72
     0
 11
457.850400
 21
-477.127975
 31
0.000000
100
AcDbText
 73
     3
  0
ENDBLK
  5
721
100
AcDbEntity
  8
0
100
AcDbBlockEnd
  0
BLOCK
  5
722
100
AcDbEntity
  8
0
100
AcDbBlockBegin
  2
DatErst2
 70
    66
 10
0.000000
 20
0.000000
 30
0.000000
  0
TEXT
  5
723
100
AcDbEntity
  8
0
 62
     6
100
AcDbText
 10
585.870470
 20
-483.377975
 30
0.000000
 40
6.250000
  1
21.10.16
 50
0.000000
 41
1.253385
 51
0.000000
  7
TXT8
 72
     0
 11
585.870470
 21
-477.127975
 31
0.000000
100
AcDbText
 73
     3
  0
ENDBLK
  5
724
100
AcDbEntity
  8
0
100
AcDbBlockEnd
  0
BLOCK
  5
725
100
AcDbEntity
  8
0
100
AcDbBlockBegin
  2
Erst2
 70
    66
 10
0.000000
 20
0.000000
 30
0.000000
  0
TEXT
  5
726
100
AcDbEntity
  8
0
 62
     6
100
AcDbText
 10
634.030750
 20
-483.377975
 30
0.000000
 40
6.250000
  1
Gerh
 50
0.000000
 41
0.850136
 51
0.000000
  7
TXT8
 72
     0
 11
634.030750
 21
-477.127975
 31
0.000000
100
AcDbText
 73
     3
  0
ENDBLK
  5
727
100
AcDbEntity
  8
0
100
AcDbBlockEnd
  0
BLOCK
  5
728
100
AcDbEntity
  8
0
100
AcDbBlockBegin
  2
Erst1
 70
    66
 10
0.000000
 20
0.000000
 30
0.000000
  0
TEXT
  5
729
100
AcDbEntity
  8
0
 62
     6
100
AcDbText
 10
511.098020
 20
-483.925975
 30
0.000000
 40
6.250000
  1
Gerh
 50
0.000000
 41
0.850136
 51
0.000000
  7
TXT8
 72
     0
 11
511.098020
 21
-477.675975
 31
0.000000
100
AcDbText
 73
     3
  0
ENDBLK
  5
72A
100
AcDbEntity
  8
0
100
AcDbBlockEnd
  0
ENDSEC
  0
SECTION
  2
ENTITIES
  0
INSERT
  5
72B
100
AcDbEntity
  8
L
100
AcDbBlockReference
  2
B
 10
0.000000
 20
0.000000
 30
0.000000
 41
1.000000
 42
1.000000
 43
1.000000
 50
0.000000
  0
INSERT
  5
72C
100
AcDbEntity
  8
L
100
AcDbBlockReference
  2
B-2
 10
0.000000
 20
0.000000
 30
0.000000
 41
1.000000
 42
1.000000
 43
1.000000
 50
0.000000
  0
INSERT
  5
72D
100
AcDbEntity
  8
L
100
AcDbBlockReference
  2
B-3
 10
0.000000
 20
0.000000
 30
0.000000
 41
1.000000
 42
1.000000
 43
1.000000
 50
0.000000
  0
INSERT
  5
72E
100
AcDbEntity
  8
L
100
AcDbBlockReference
  2
B-4
 10
0.000000
 20
0.000000
 30
0.000000
 41
1.000000
 42
1.000000
 43
1.000000
 50
0.000000
  0
INSERT
  5
72F
100
AcDbEntity
  8
0
100
AcDbBlockReference
  2
B-5
 10
0.000000
 20
0.000000
 30
0.000000
 41
1.000000
 42
1.000000
 43
1.000000
 50
0.000000
  0
INSERT
  5
730
100
AcDbEntity
  8
L
100
AcDbBlockReference
  2
B-6
 10
0.000000
 20
0.000000
 30
0.000000
 41
1.000000
 42
1.000000
 43
1.000000
 50
0.000000
  0
INSERT
  5
731
100
AcDbEntity
  8
L
100
AcDbBlockReference
  2
B-7
 10
0.000000
 20
0.000000
 30
0.000000
 41
1.000000
 42
1.000000
 43
1.000000
 50
0.000000
  0
INSERT
  5
732
100
AcDbEntity
  8
L
100
AcDbBlockReference
  2
B-8
 10
0.000000
 20
0.000000
 30
0.000000
 41
1.000000
 42
1.000000
 43
1.000000
 50
0.000000
  0
INSERT
  5
733
100
AcDbEntity
  8
L
100
AcDbBlockReference
  2
B-9
 10
0.000000
 20
0.000000
 30
0.000000
 41
1.000000
 42
1.000000
 43
1.000000
 50
0.000000
  0
INSERT
  5
734
100
AcDbEntity
  8
L
100
AcDbBlockReference
  2
mass
 10
0.000000
 20
0.000000
 30
0.000000
 41
1.000000
 42
1.000000
 43
1.000000
 50
0.000000
  0
DIMENSION
  5
735
100
AcDbEntity
  8
MASSE
 62
     3
100
AcDbDimension
  2
*D0
  3
CAD400-DIM0
 10
323.750007
 20
303.467328
 30
0.000000
 11
307.300005
 21
361.717335
 31
0.000000
 70
   128
100
AcDbAlignedDimension
 13
125.830570
 23
303.467360
 33
0.000000
 14
178.830550
 24
419.967360
 34
0.000000
 50
90.000000
100
AcDbRotatedDimension
  0
DIMENSION
  5
736
100
AcDbEntity
  8
MASSE
 62
     3
100
AcDbDimension
  2
*D1
  3
CAD400-DIM1
 10
-396.249987
 20
-119.480988
 30
0.000000
 11
-412.699990
 21
-71.980990
 31
0.000000
 70
   128
100
AcDbAlignedDimension
 13
-379.137410
 23
-119.480990
 33
0.000000
 14
-239.169430
 24
-24.480990
 34
0.000000
 50
90.000000
100
AcDbRotatedDimension
  0
DIMENSION
  5
737
100
AcDbEntity
  8
MASSE
 62
     3
100
AcDbDimension
  2
*D2
  3
CAD400-DIM1
 10
-396.249982
 20
-246.481008
 30
0.000000
 11
-412.699985
 21
-182.981000
 31
0.000000
 70
   128
100
AcDbAlignedDimension
 13
-124.169430
 23
-246.480980
 33
0.000000
 14
-379.137410
 24
-119.480990
 34
0.000000
 50
90.000000
100
AcDbRotatedDimension
  0
DIMENSION
  5
738
100
AcDbEntity
  8
MASSE
 62
     3
100
AcDbDimension
  2
*D3
  3
CAD400-DIM2
 10
-239.169408
 20
-315.000013
 30
0.000000
 11
-151.669410
 21
-298.550015
 31
0.000000
 70
   128
100
AcDbAlignedDimension
 13
-239.169430
 23
-236.980970
 33
0.000000
 14
-64.169420
 24
-384.152380
 34
0.000000
 50
0.000000
100
AcDbRotatedDimension
  0
DIMENSION
  5
739
100
AcDbEntity
  8
MASSE
 62
     3
100
AcDbDimension
  2
*D4
  3
CAD400-DIM3
 10
-254.169428
 20
-374.999998
 30
0.000000
 11
-159.169420
 21
-358.550000
 31
0.000000
 70
   128
100
AcDbAlignedDimension
 13
-254.169430
 23
-199.480980
 33
0.000000
 14
-64.169420
 24
-384.152380
 34
0.000000
 50
0.000000
100
AcDbRotatedDimension
  0
DIMENSION
  5
73A
100
AcDbEntity
  8
MASSE
 62
     3
100
AcDbDimension
  2
*D5
  3
CAD400-DIM4
 10
-64.169417
 20
-315.000007
 30
0.000000
 11
23.330560
 21
-298.550010
 31
0.000000
 70
   128
100
AcDbAlignedDimension
 13
-64.169420
 23
-384.152380
 33
0.000000
 14
110.830550
 24
-236.980970
 34
0.000000
 50
0.000000
100
AcDbRotatedDimension
  0
DIMENSION
  5
73B
100
AcDbEntity
  8
MASSE
 62
     3
100
AcDbDimension
  2
*D6
  3
CAD400-DIM5
 10
-64.169413
 20
-375.000027
 30
0.000000
 11
30.830565
 21
-358.550030
 31
0.000000
 70
   128
100
AcDbAlignedDimension
 13
-64.169420
 23
-384.152380
 33
0.000000
 14
125.830570
 24
-199.480980
 34
0.000000
 50
0.000000
100
AcDbRotatedDimension
  0
DIMENSION
  5
73C
100
AcDbEntity
  8
MASSE
 62
     3
100
AcDbDimension
  2
*D7
  3
CAD400-DIM6
 10
263.750013
 20
-199.480993
 30
0.000000
 11
247.300010
 21
-159.480985
 31
0.000000
 70
   128
100
AcDbAlignedDimension
 13
148.330550
 23
-199.480980
 33
0.000000
 14
222.814640
 24
-119.480990
 34
0.000000
 50
90.000000
100
AcDbRotatedDimension
  0
DIMENSION
  5
73D
100
AcDbEntity
  8
MASSE
 62
     3
100
AcDbDimension
  2
*D8
  3
CAD400-DIM7
 10
263.750013
 20
-119.480988
 30
0.000000
 11
247.300010
 21
-79.480990
 31
0.000000
 70
   128
100
AcDbAlignedDimension
 13
222.814640
 23
-119.480990
 33
0.000000
 14
148.330560
 24
-39.480990
 34
0.000000
 50
90.000000
100
AcDbRotatedDimension
  0
DIMENSION
  5
73E
100
AcDbEntity
  8
MASSE
 62
     3
100
AcDbDimension
  2
*D9
  3
CAD400-DIM8
 10
-366.249987
 20
266.467362
 30
0.000000
 11
-382.699990
 21
343.217360
 31
0.000000
 70
   128
100
AcDbAlignedDimension
 13
-165.667645
 23
266.467360
 33
0.000000
 14
-321.106325
 24
419.967360
 34
0.000000
 50
90.000000
100
AcDbRotatedDimension
  0
DIMENSION
  5
73F
100
AcDbEntity
  8
MASSE
 62
     3
100
AcDbDimension
  2
*D10
  3
CAD400-DIM8
 10
-196.667647
 20
165.000002
 30
0.000000
 11
-255.241910
 21
181.450000
 31
0.000000
 70
   128
100
AcDbAlignedDimension
 13
-196.667650
 23
276.450000
 33
0.000000
 14
-186.167650
 24
276.449995
 34
0.000000
 50
0.000000
100
AcDbRotatedDimension
  0
DIMENSION
  5
740
100
AcDbEntity
  8
MASSE
 62
     3
100
AcDbDimension
  2
*D11
  3
CAD400-DIM1
 10
-186.167647
 20
165.000002
 30
0.000000
 11
-125.168540
 21
181.450000
 31
0.000000
 70
   128
100
AcDbAlignedDimension
 13
-186.167650
 23
276.449995
 33
0.000000
 14
-64.169430
 24
232.046530
 34
0.000000
 50
0.000000
100
AcDbRotatedDimension
  0
DIMENSION
  5
741
100
AcDbEntity
  8
MASSE
 62
     3
100
AcDbDimension
  2
*D12
  3
CAD400-DIM8
 10
-170.669428
 20
210.000002
 30
0.000000
 11
-117.419430
 21
226.450000
 31
0.000000
 70
   128
100
AcDbAlignedDimension
 13
-170.669430
 23
270.467445
 33
0.000000
 14
-64.169430
 24
232.046530
 34
0.000000
 50
0.000000
100
AcDbRotatedDimension
  0
DIMENSION
  5
742
100
AcDbEntity
  8
MASSE
 62
     3
100
AcDbDimension
  2
*D13
  3
CAD400-DIM8
 10
-64.169427
 20
210.000002
 30
0.000000
 11
-10.920310
 21
226.450000
 31
0.000000
 70
   128
100
AcDbAlignedDimension
 13
-64.169430
 23
232.046530
 33
0.000000
 14
42.328810
 24
271.467360
 34
0.000000
 50
0.000000
100
AcDbRotatedDimension
  0
DIMENSION
  5
743
100
AcDbEntity
  8
MASSE
 62
     3
100
AcDbDimension
  2
*D14
  3
CAD400-DIM9
 10
263.750013
 20
303.467362
 30
0.000000
 11
247.300010
 21
352.138635
 31
0.000000
 70
   128
100
AcDbAlignedDimension
 13
126.330605
 23
303.467360
 33
0.000000
 14
125.830570
 24
309.967360
 34
0.000000
 50
90.000000
100
AcDbRotatedDimension
  0
DIMENSION
  5
744
100
AcDbEntity
  8
MASSE
 62
     3
100
AcDbDimension
  2
*D15
  3
CAD400-DIM1
 10
203.750013
 20
291.967362
 30
0.000000
 11
187.300010
 21
255.000000
 31
0.000000
 70
   128
100
AcDbAlignedDimension
 13
103.563770
 23
291.967360
 33
0.000000
 14
126.330605
 24
303.467360
 34
0.000000
 50
90.000000
100
AcDbRotatedDimension
  0
DIMENSION
  5
745
100
AcDbEntity
  8
MASSE
 62
     3
100
AcDbDimension
  2
*D16
  3
CAD400-DIM10
 10
203.750013
 20
-45.980967
 30
0.000000
 11
187.300010
 21
15.000000
 31
0.000000
 70
   128
100
AcDbAlignedDimension
 13
110.830560
 23
-45.980970
 33
0.000000
 14
110.830560
 24
-32.980970
 34
0.000000
 50
90.000000
100
AcDbRotatedDimension
  0
INSERT
  5
746
100
AcDbEntity
  8
L
100
AcDbBlockReference
  2
rahmen
 10
0.000000
 20
0.000000
 30
0.000000
 41
1.000000
 42
1.000000
 43
1.000000
 50
0.000000
  0
INSERT
  5
747
100
AcDbEntity
  8
0
100
AcDbBlockReference
  2
ZNr
 10
0.000000
 20
0.000000
 30
0.000000
 41
1.000000
 42
1.000000
 43
1.000000
 50
0.000000
  0
INSERT
  5
748
100
AcDbEntity
  8
L
100
AcDbBlockReference
  2
datum1
 10
0.000000
 20
0.000000
 30
0.000000
 41
1.000000
 42
1.000000
 43
1.000000
 50
0.000000
  0
INSERT
  5
749
100
AcDbEntity
  8
L
100
AcDbBlockReference
  2
datum2
 10
0.000000
 20
0.000000
 30
0.000000
 41
1.000000
 42
1.000000
 43
1.000000
 50
0.000000
  0
INSERT
  5
74A
100
AcDbEntity
  8
L
100
AcDbBlockReference
  2
datum3
 10
0.000000
 20
0.000000
 30
0.000000
 41
1.000000
 42
1.000000
 43
1.000000
 50
0.000000
  0
INSERT
  5
74B
100
AcDbEntity
  8
L
100
AcDbBlockReference
  2
datum4
 10
0.000000
 20
0.000000
 30
0.000000
 41
1.000000
 42
1.000000
 43
1.000000
 50
0.000000
  0
INSERT
  5
74C
100
AcDbEntity
  8
L
100
AcDbBlockReference
  2
datum5
 10
0.000000
 20
0.000000
 30
0.000000
 41
1.000000
 42
1.000000
 43
1.000000
 50
0.000000
  0
INSERT
  5
74D
100
AcDbEntity
  8
L
100
AcDbBlockReference
  2
datum6
 10
0.000000
 20
0.000000
 30
0.000000
 41
1.000000
 42
1.000000
 43
1.000000
 50
0.000000
  0
INSERT
  5
74E
100
AcDbEntity
  8
L
100
AcDbBlockReference
  2
datum7
 10
0.000000
 20
0.000000
 30
0.000000
 41
1.000000
 42
1.000000
 43
1.000000
 50
0.000000
  0
INSERT
  5
74F
100
AcDbEntity
  8
L
100
AcDbBlockReference
  2
index7
 10
0.000000
 20
0.000000
 30
0.000000
 41
1.000000
 42
1.000000
 43
1.000000
 50
0.000000
  0
INSERT
  5
750
100
AcDbEntity
  8
L
100
AcDbBlockReference
  2
index1
 10
0.000000
 20
0.000000
 30
0.000000
 41
1.000000
 42
1.000000
 43
1.000000
 50
0.000000
  0
INSERT
  5
751
100
AcDbEntity
  8
L
100
AcDbBlockReference
  2
name3
 10
0.000000
 20
0.000000
 30
0.000000
 41
1.000000
 42
1.000000
 43
1.000000
 50
0.000000
  0
INSERT
  5
752
100
AcDbEntity
  8
L
100
AcDbBlockReference
  2
name5
 10
0.000000
 20
0.000000
 30
0.000000
 41
1.000000
 42
1.000000
 43
1.000000
 50
0.000000
  0
INSERT
  5
753
100
AcDbEntity
  8
L
100
AcDbBlockReference
  2
name1
 10
0.000000
 20
0.000000
 30
0.000000
 41
1.000000
 42
1.000000
 43
1.000000
 50
0.000000
  0
INSERT
  5
754
100
AcDbEntity
  8
L
100
AcDbBlockReference
  2
name7
 10
0.000000
 20
0.000000
 30
0.000000
 41
1.000000
 42
1.000000
 43
1.000000
 50
0.000000
  0
INSERT
  5
755
100
AcDbEntity
  8
L
100
AcDbBlockReference
  2
nummer1
 10
0.000000
 20
0.000000
 30
0.000000
 41
1.000000
 42
1.000000
 43
1.000000
 50
0.000000
  0
INSERT
  5
756
100
AcDbEntity
  8
L
100
AcDbBlockReference
  2
nummer7
 10
0.000000
 20
0.000000
 30
0.000000
 41
1.000000
 42
1.000000
 43
1.000000
 50
0.000000
  0
INSERT
  5
757
100
AcDbEntity
  8
L
100
AcDbBlockReference
  2
name2
 10
0.000000
 20
0.000000
 30
0.000000
 41
1.000000
 42
1.000000
 43
1.000000
 50
0.000000
  0
INSERT
  5
758
100
AcDbEntity
  8
L
100
AcDbBlockReference
  2
name4
 10
0.000000
 20
0.000000
 30
0.000000
 41
1.000000
 42
1.000000
 43
1.000000
 50
0.000000
  0
INSERT
  5
759
100
AcDbEntity
  8
L
100
AcDbBlockReference
  2
name6
 10
0.000000
 20
0.000000
 30
0.000000
 41
1.000000
 42
1.000000
 43
1.000000
 50
0.000000
  0
INSERT
  5
75A
100
AcDbEntity
  8
L
100
AcDbBlockReference
  2
nummer2
 10
0.000000
 20
0.000000
 30
0.000000
 41
1.000000
 42
1.000000
 43
1.000000
 50
0.000000
  0
INSERT
  5
75B
100
AcDbEntity
  8
L
100
AcDbBlockReference
  2
nummer3
 10
0.000000
 20
0.000000
 30
0.000000
 41
1.000000
 42
1.000000
 43
1.000000
 50
0.000000
  0
INSERT
  5
75C
100
AcDbEntity
  8
L
100
AcDbBlockReference
  2
nummer4
 10
0.000000
 20
0.000000
 30
0.000000
 41
1.000000
 42
1.000000
 43
1.000000
 50
0.000000
  0
INSERT
  5
75D
100
AcDbEntity
  8
L
100
AcDbBlockReference
  2
nummer5
 10
0.000000
 20
0.000000
 30
0.000000
 41
1.000000
 42
1.000000
 43
1.000000
 50
0.000000
  0
INSERT
  5
75E
100
AcDbEntity
  8
L
100
AcDbBlockReference
  2
nummer6
 10
0.000000
 20
0.000000
 30
0.000000
 41
1.000000
 42
1.000000
 43
1.000000
 50
0.000000
  0
INSERT
  5
75F
100
AcDbEntity
  8
L
100
AcDbBlockReference
  2
index2
 10
0.000000
 20
0.000000
 30
0.000000
 41
1.000000
 42
1.000000
 43
1.000000
 50
0.000000
  0
INSERT
  5
760
100
AcDbEntity
  8
L
100
AcDbBlockReference
  2
index3
 10
0.000000
 20
0.000000
 30
0.000000
 41
1.000000
 42
1.000000
 43
1.000000
 50
0.000000
  0
INSERT
  5
761
100
AcDbEntity
  8
L
100
AcDbBlockReference
  2
index4
 10
0.000000
 20
0.000000
 30
0.000000
 41
1.000000
 42
1.000000
 43
1.000000
 50
0.000000
  0
INSERT
  5
762
100
AcDbEntity
  8
L
100
AcDbBlockReference
  2
index5
 10
0.000000
 20
0.000000
 30
0.000000
 41
1.000000
 42
1.000000
 43
1.000000
 50
0.000000
  0
INSERT
  5
763
100
AcDbEntity
  8
L
100
AcDbBlockReference
  2
index6
 10
0.000000
 20
0.000000
 30
0.000000
 41
1.000000
 42
1.000000
 43
1.000000
 50
0.000000
  0
INSERT
  5
764
100
AcDbEntity
  8
L
100
AcDbBlockReference
  2
index8
 10
0.000000
 20
0.000000
 30
0.000000
 41
1.000000
 42
1.000000
 43
1.000000
 50
0.000000
  0
INSERT
  5
765
100
AcDbEntity
  8
L
100
AcDbBlockReference
  2
index9
 10
0.000000
 20
0.000000
 30
0.000000
 41
1.000000
 42
1.000000
 43
1.000000
 50
0.000000
  0
INSERT
  5
766
100
AcDbEntity
  8
L
100
AcDbBlockReference
  2
datum8
 10
0.000000
 20
0.000000
 30
0.000000
 41
1.000000
 42
1.000000
 43
1.000000
 50
0.000000
  0
INSERT
  5
767
100
AcDbEntity
  8
L
100
AcDbBlockReference
  2
name8
 10
0.000000
 20
0.000000
 30
0.000000
 41
1.000000
 42
1.000000
 43
1.000000
 50
0.000000
  0
INSERT
  5
768
100
AcDbEntity
  8
L
100
AcDbBlockReference
  2
name9
 10
0.000000
 20
0.000000
 30
0.000000
 41
1.000000
 42
1.000000
 43
1.000000
 50
0.000000
  0
INSERT
  5
769
100
AcDbEntity
  8
L
100
AcDbBlockReference
  2
nummer8
 10
0.000000
 20
0.000000
 30
0.000000
 41
1.000000
 42
1.000000
 43
1.000000
 50
0.000000
  0
INSERT
  5
76A
100
AcDbEntity
  8
L
100
AcDbBlockReference
  2
nummer9
 10
0.000000
 20
0.000000
 30
0.000000
 41
1.000000
 42
1.000000
 43
1.000000
 50
0.000000
  0
INSERT
  5
76B
100
AcDbEntity
  8
L
100
AcDbBlockReference
  2
aend1
 10
0.000000
 20
0.000000
 30
0.000000
 41
1.000000
 42
1.000000
 43
1.000000
 50
0.000000
  0
INSERT
  5
76C
100
AcDbEntity
  8
L
100
AcDbBlockReference
  2
aend2
 10
0.000000
 20
0.000000
 30
0.000000
 41
1.000000
 42
1.000000
 43
1.000000
 50
0.000000
  0
INSERT
  5
76D
100
AcDbEntity
  8
L
100
AcDbBlockReference
  2
aend3
 10
0.000000
 20
0.000000
 30
0.000000
 41
1.000000
 42
1.000000
 43
1.000000
 50
0.000000
  0
INSERT
  5
76E
100
AcDbEntity
  8
L
100
AcDbBlockReference
  2
aend4
 10
0.000000
 20
0.000000
 30
0.000000
 41
1.000000
 42
1.000000
 43
1.000000
 50
0.000000
  0
INSERT
  5
76F
100
AcDbEntity
  8
L
100
AcDbBlockReference
  2
aend5
 10
0.000000
 20
0.000000
 30
0.000000
 41
1.000000
 42
1.000000
 43
1.000000
 50
0.000000
  0
INSERT
  5
770
100
AcDbEntity
  8
L
100
AcDbBlockReference
  2
aend6
 10
0.000000
 20
0.000000
 30
0.000000
 41
1.000000
 42
1.000000
 43
1.000000
 50
0.000000
  0
INSERT
  5
771
100
AcDbEntity
  8
L
100
AcDbBlockReference
  2
aend7
 10
0.000000
 20
0.000000
 30
0.000000
 41
1.000000
 42
1.000000
 43
1.000000
 50
0.000000
  0
INSERT
  5
772
100
AcDbEntity
  8
L
100
AcDbBlockReference
  2
aend8
 10
0.000000
 20
0.000000
 30
0.000000
 41
1.000000
 42
1.000000
 43
1.000000
 50
0.000000
  0
INSERT
  5
773
100
AcDbEntity
  8
L
100
AcDbBlockReference
  2
aend9
 10
0.000000
 20
0.000000
 30
0.000000
 41
1.000000
 42
1.000000
 43
1.000000
 50
0.000000
  0
INSERT
  5
774
100
AcDbEntity
  8
L
100
AcDbBlockReference
  2
datum9
 10
0.000000
 20
0.000000
 30
0.000000
 41
1.000000
 42
1.000000
 43
1.000000
 50
0.000000
  0
INSERT
  5
775
100
AcDbEntity
  8
L
100
AcDbBlockReference
  2
sk
 10
0.000000
 20
0.000000
 30
0.000000
 41
1.000000
 42
1.000000
 43
1.000000
 50
0.000000
  0
INSERT
  5
776
100
AcDbEntity
  8
L
100
AcDbBlockReference
  2
B-314
 10
0.000000
 20
0.000000
 30
0.000000
 41
1.000000
 42
1.000000
 43
1.000000
 50
0.000000
  0
INSERT
  5
777
100
AcDbEntity
  8
0
100
AcDbBlockReference
  2
Be1
 10
0.000000
 20
0.000000
 30
0.000000
 41
1.000000
 42
1.000000
 43
1.000000
 50
0.000000
  0
INSERT
  5
778
100
AcDbEntity
  8
0
100
AcDbBlockReference
  2
B-315
 10
0.000000
 20
0.000000
 30
0.000000
 41
1.000000
 42
1.000000
 43
1.000000
 50
0.000000
  0
INSERT
  5
779
100
AcDbEntity
  8
L
100
AcDbBlockReference
  2
B-316
 10
0.000000
 20
0.000000
 30
0.000000
 41
1.000000
 42
1.000000
 43
1.000000
 50
0.000000
  0
INSERT
  5
77A
100
AcDbEntity
  8
0
100
AcDbBlockReference
  2
Be2
 10
0.000000
 20
0.000000
 30
0.000000
 41
1.000000
 42
1.000000
 43
1.000000
 50
0.000000
  0
INSERT
  5
77B
100
AcDbEntity
  8
0
100
AcDbBlockReference
  2
Be3
 10
0.000000
 20
0.000000
 30
0.000000
 41
1.000000
 42
1.000000
 43
1.000000
 50
0.000000
  0
INSERT
  5
77C
100
AcDbEntity
  8
0
100
AcDbBlockReference
  2
DatErst1
 10
0.000000
 20
0.000000
 30
0.000000
 41
1.000000
 42
1.000000
 43
1.000000
 50
0.000000
  0
INSERT
  5
77D
100
AcDbEntity
  8
0
100
AcDbBlockReference
  2
DatErst2
 10
0.000000
 20
0.000000
 30
0.000000
 41
1.000000
 42
1.000000
 43
1.000000
 50
0.000000
  0
INSERT
  5
77E
100
AcDbEntity
  8
0
100
AcDbBlockReference
  2
Erst2
 10
0.000000
 20
0.000000
 30
0.000000
 41
1.000000
 42
1.000000
 43
1.000000
 50
0.000000
  0
INSERT
  5
77F
100
AcDbEntity
  8
0
100
AcDbBlockReference
  2
Erst1
 10
0.000000
 20
0.000000
 30
0.000000
 41
1.000000
 42
1.000000
 43
1.000000
 50
0.000000
  0
ENDSEC
  0
SECTION
  2
OBJECTS
  0
DICTIONARY
  5
C
330
0
100
AcDbDictionary
281
     1
  3
ACAD_COLOR
350
6B
  3
ACAD_GROUP
350
D
  3
ACAD_IMAGE_DICT
350
1E2
  3
ACAD_IMAGE_VARS
350
1E3
  3
ACAD_MATERIAL
350
6A
  3
ACAD_MLINESTYLE
350
17
  3
ACAD_PLOTSETTINGS
350
19
  3
ACAD_PLOTSTYLENAME
350
E
  3
ACAD_SCALELIST
350
10C
  3
ACAD_TABLESTYLE
350
7E
  3
ACAD_VISUALSTYLE
350
EF
  3
ACDB_RECOMPOSE_DATA
350
15D
  3
AcDbVariableDictionary
350
5E
  0
DICTIONARY
  5
13C
330
10
100
AcDbDictionary
280
     1
281
     1
  0
DICTIONARY
  5
211
330
210
100
AcDbDictionary
280
     1
281
     1
  0
DICTIONARY
  5
6B
102
{ACAD_REACTORS
330
C
102
}
330
C
100
AcDbDictionary
281
     1
  0
DICTIONARY
  5
D
102
{ACAD_REACTORS
330
C
102
}
330
C
100
AcDbDictionary
281
     1
  0
DICTIONARY
  5
1E2
102
{ACAD_REACTORS
330
C
102
}
330
C
100
AcDbDictionary
281
     1
  0
RASTERVARIABLES
  5
1E3
102
{ACAD_REACTORS
330
C
102
}
330
C
100
AcDbRasterVariables
 90
        0
 70
     1
 71
     1
 72
     1
  0
DICTIONARY
  5
6A
102
{ACAD_REACTORS
330
C
102
}
330
C
100
AcDbDictionary
281
     1
  3
ByBlock
350
ED
  3
ByLayer
350
EC
  3
Global
350
EE
  0
DICTIONARY
  5
12D
102
{ACAD_REACTORS
330
C
102
}
330
C
100
AcDbDictionary
281
     1
  3
Annotative
350
13B
  3
Standard
350
12E
  0
DICTIONARY
  5
17
102
{ACAD_REACTORS
330
C
102
}
330
C
100
AcDbDictionary
281
     1
  3
Standard
350
18
  0
DICTIONARY
  5
19
102
{ACAD_REACTORS
330
C
102
}
330
C
100
AcDbDictionary
281
     1
  0
ACDBDICTIONARYWDFLT
  5
E
102
{ACAD_REACTORS
330
C
102
}
330
C
100
AcDbDictionary
281
     1
  3
Normal
350
F
100
AcDbDictionaryWithDefault
340
F
  0
DICTIONARY
  5
10C
102
{ACAD_REACTORS
330
C
102
}
330
C
100
AcDbDictionary
281
     1
  3
A0
350
10D
  3
A1
350
1BE
  3
A2
350
1BF
  3
A3
350
1C0
  3
A4
350
1C1
  3
A5
350
1C2
  3
A6
350
1C3
  3
A7
350
1C4
  3
A8
350
1C5
  3
A9
350
1C6
  3
B0
350
1C7
  3
B1
350
1C8
  3
B2
350
1C9
  3
B3
350
1CA
  3
B4
350
1CB
  3
B5
350
1CC
  3
B6
350
1CD
  0
DICTIONARY
  5
7E
102
{ACAD_REACTORS
330
C
102
}
330
C
100
AcDbDictionary
281
     1
  3
Standard
350
7F
  0
DICTIONARY
  5
EF
102
{ACAD_REACTORS
330
C
102
}
330
C
100
AcDbDictionary
281
     1
  3
2dWireframe
350
F5
  3
3D Hidden
350
F7
  3
3dWireframe
350
F6
  3
Basic
350
F4
  3
Brighten
350
FB
  3
ColorChange
350
FF
  3
Conceptual
350
F8
  3
Dim
350
FA
  3
Facepattern
350
FE
  3
Flat
350
F0
  3
FlatWithEdges
350
F1
  3
Gouraud
350
F2
  3
GouraudWithEdges
350
F3
  3
Linepattern
350
FD
  3
Realistic
350
F9
  3
Thicken
350
FC
  0
XRECORD
  5
15D
102
{ACAD_REACTORS
330
C
102
}
330
C
100
AcDbXrecord
280
     1
 90
        1
330
7F
  0
DICTIONARY
  5
5E
102
{ACAD_REACTORS
330
C
102
}
330
C
100
AcDbDictionary
281
     1
  3
CANNOSCALE
350
146
  3
CMLEADERSTYLE
350
145
  3
CTABLESTYLE
350
84
  3
DIMASSOC
350
5F
  3
HIDETEXT
350
63
  3
LAYEREVAL
350
1AE
  3
LAYERNOTIFY
350
1AF
  0
MATERIAL
  5
ED
102
{ACAD_REACTORS
330
6A
102
}
330
6A
100
AcDbMaterial
  1
ByBlock
 94
       63
  0
MATERIAL
  5
EC
102
{ACAD_REACTORS
330
6A
102
}
330
6A
100
AcDbMaterial
  1
ByLayer
 94
       63
  0
MATERIAL
  5
EE
102
{ACAD_XDICTIONARY
360
173
102
}
102
{ACAD_REACTORS
330
6A
102
}
330
6A
100
AcDbMaterial
  1
Global
 43
0.0007999999797903
 43
0.0
 43
0.0
 43
0.0
 43
0.0
 43
0.0007999999797903
 43
0.0
 43
0.0
 43
0.0
 43
0.0
 43
1.0
 43
0.0
 43
0.0
 43
0.0
 43
0.0
 43
1.0
 49
0.0007999999797903
 49
0.0
 49
0.0
 49
0.0
 49
0.0
 49
0.0007999999797903
 49
0.0
 49
0.0
 49
0.0
 49
0.0
 49
1.0
 49
0.0
 49
0.0
 49
0.0
 49
0.0
 49
1.0
142
0.0007999999797903
142
0.0
142
0.0
142
0.0
142
0.0
142
0.0007999999797903
142
0.0
142
0.0
142
0.0
142
0.0
142
1.0
142
0.0
142
0.0
142
0.0
142
0.0
142
1.0
144
0.0007999999797903
144
0.0
144
0.0
144
0.0
144
0.0
144
0.0007999999797903
144
0.0
144
0.0
144
0.0
144
0.0
144
1.0
144
0.0
144
0.0
144
0.0
144
0.0
144
1.0
 94
       63
1001
ACAD
1070
    -1
1070
     3
1070
     0
1000

1071
        0
1070
     0
  0
MLINESTYLE
  5
18
102
{ACAD_REACTORS
330
17
102
}
330
17
100
AcDbMlineStyle
  2
STANDARD
 70
     0
  3

 62
   256
 51
90.0
 52
90.0
 71
     2
 49
0.5
 62
   256
  6
BYLAYER
 49
-0.5
 62
   256
  6
BYLAYER
  0
ACDBPLACEHOLDER
  5
F
102
{ACAD_REACTORS
330
E
102
}
330
E
  0
SCALE
  5
10D
102
{ACAD_REACTORS
330
10C
102
}
330
10C
100
AcDbScale
 70
     0
300
1:1
140
1.0
141
1.0
290
     1
  0
SCALE
  5
1BE
102
{ACAD_REACTORS
330
10C
102
}
330
10C
100
AcDbScale
 70
     0
300
1:2
140
1.0
141
2.0
290
     0
  0
SCALE
  5
1BF
102
{ACAD_REACTORS
330
10C
102
}
330
10C
100
AcDbScale
 70
     0
300
1:4
140
1.0
141
4.0
290
     0
  0
SCALE
  5
1C0
102
{ACAD_REACTORS
330
10C
102
}
330
10C
100
AcDbScale
 70
     0
300
1:5
140
1.0
141
5.0
290
     0
  0
SCALE
  5
1C1
102
{ACAD_REACTORS
330
10C
102
}
330
10C
100
AcDbScale
 70
     0
300
1:8
140
1.0
141
8.0
290
     0
  0
SCALE
  5
1C2
102
{ACAD_REACTORS
330
10C
102
}
330
10C
100
AcDbScale
 70
     0
300
1:10
140
1.0
141
10.0
290
     0
  0
SCALE
  5
1C3
102
{ACAD_REACTORS
330
10C
102
}
330
10C
100
AcDbScale
 70
     0
300
1:16
140
1.0
141
16.0
290
     0
  0
SCALE
  5
1C4
102
{ACAD_REACTORS
330
10C
102
}
330
10C
100
AcDbScale
 70
     0
300
1:20
140
1.0
141
20.0
290
     0
  0
SCALE
  5
1C5
102
{ACAD_REACTORS
330
10C
102
}
330
10C
100
AcDbScale
 70
     0
300
1:30
140
1.0
141
30.0
290
     0
  0
SCALE
  5
1C6
102
{ACAD_REACTORS
330
10C
102
}
330
10C
100
AcDbScale
 70
     0
300
1:40
140
1.0
141
40.0
290
     0
  0
SCALE
  5
1C7
102
{ACAD_REACTORS
330
10C
102
}
330
10C
100
AcDbScale
 70
     0
300
1:50
140
1.0
141
50.0
290
     0
  0
SCALE
  5
1C8
102
{ACAD_REACTORS
330
10C
102
}
330
10C
100
AcDbScale
 70
     0
300
1:100
140
1.0
141
100.0
290
     0
  0
SCALE
  5
1C9
102
{ACAD_REACTORS
330
10C
102
}
330
10C
100
AcDbScale
 70
     0
300
2:1
140
2.0
141
1.0
290
     0
  0
SCALE
  5
1CA
102
{ACAD_REACTORS
330
10C
102
}
330
10C
100
AcDbScale
 70
     0
300
4:1
140
4.0
141
1.0
290
     0
  0
SCALE
  5
1CB
102
{ACAD_REACTORS
330
10C
102
}
330
10C
100
AcDbScale
 70
     0
300
8:1
140
8.0
141
1.0
290
     0
  0
SCALE
  5
1CC
102
{ACAD_REACTORS
330
10C
102
}
330
10C
100
AcDbScale
 70
     0
300
10:1
140
10.0
141
1.0
290
     0
  0
SCALE
  5
1CD
102
{ACAD_REACTORS
330
10C
102
}
330
10C
100
AcDbScale
 70
     0
300
100:1
140
100.0
141
1.0
290
     0
  0
TABLESTYLE
  5
7F
102
{ACAD_XDICTIONARY
360
162
102
}
102
{ACAD_REACTORS
330
7E
102
}
330
7E
100
AcDbTableStyle
  3
Standard
 70
     0
 71
     0
 40
1.5
 41
1.5
280
     0
281
     0
  7
Standard
140
4.5
170
     2
 62
     0
 63
     7
283
     0
 90
      512
 91
        0
  1

274
    -2
284
     1
 64
     0
275
    -2
285
     1
 65
     0
276
    -2
286
     1
 66
     0
277
    -2
287
     1
 67
     0
278
    -2
288
     1
 68
     0
279
    -2
289
     1
 69
     0
  7
Standard
140
6.0
170
     5
 62
     0
 63
     7
283
     0
 90
      512
 91
        0
  1

274
    -2
284
     1
 64
     0
275
    -2
285
     1
 65
     0
276
    -2
286
     1
 66
     0
277
    -2
287
     1
 67
     0
278
    -2
288
     1
 68
     0
279
    -2
289
     1
 69
     0
  7
Standard
140
4.5
170
     5
 62
     0
 63
     7
283
     0
 90
      512
 91
        0
  1

274
    -2
284
     1
 64
     0
275
    -2
285
     1
 65
     0
276
    -2
286
     1
 66
     0
277
    -2
287
     1
 67
     0
278
    -2
288
     1
 68
     0
279
    -2
289
     1
 69
     0
  0
VISUALSTYLE
  5
F5
102
{ACAD_REACTORS
330
EF
102
}
330
EF
100
AcDbVisualStyle
  2
2dWireframe
 70
     4
 71
     0
 72
     2
 73
     1
 90
        0
 40
-0.6
 41
-30.0
 62
     5
 63
     7
421
 16777215
 74
     1
 91
        4
 64
     7
 65
   257
 75
     1
175
     1
 42
1.0
 92
        0
 66
   257
 43
1.0
 76
     1
 77
     6
 78
     2
 67
     7
 79
     5
170
     0
171
     0
290
     0
174
     0
 93
        1
 44
0.0
173
     0
291
     0
 45
0.0
  0
VISUALSTYLE
  5
F7
102
{ACAD_REACTORS
330
EF
102
}
330
EF
100
AcDbVisualStyle
  2
3D Hidden
 70
     6
 71
     1
 72
     2
 73
     2
 90
        0
 40
-0.6
 41
-30.0
 62
     5
 63
     7
421
 16777215
 74
     2
 91
        2
 64
     7
 65
   257
 75
     2
175
     1
 42
40.0
 92
        0
 66
   257
 43
1.0
 76
     1
 77
     6
 78
     2
 67
     7
 79
     3
170
     0
171
     0
290
     0
174
     0
 93
        1
 44
0.0
173
     0
291
     0
 45
0.0
  0
VISUALSTYLE
  5
F6
102
{ACAD_REACTORS
330
EF
102
}
330
EF
100
AcDbVisualStyle
  2
3dWireframe
 70
     5
 71
     0
 72
     2
 73
     1
 90
        0
 40
-0.6
 41
-30.0
 62
     5
 63
     7
421
 16777215
 74
     1
 91
        4
 64
     7
 65
   257
 75
     1
175
     1
 42
1.0
 92
        0
 66
   257
 43
1.0
 76
     1
 77
     6
 78
     2
 67
     7
 79
     5
170
     0
171
     0
290
     0
174
     0
 93
        1
 44
0.0
173
     0
291
     0
 45
0.0
  0
VISUALSTYLE
  5
F4
102
{ACAD_REACTORS
330
EF
102
}
330
EF
100
AcDbVisualStyle
  2
Basic
 70
     7
 71
     1
 72
     0
 73
     1
 90
        0
 40
-0.6
 41
-30.0
 62
     5
 63
     7
421
 16777215
 74
     0
 91
        4
 64
     7
 65
   257
 75
     1
175
     1
 42
1.0
 92
        8
 66
     7
 43
1.0
 76
     1
 77
     6
 78
     2
 67
     7
 79
     5
170
     0
171
     0
290
     0
174
     0
 93
        1
 44
0.0
173
     0
291
     1
 45
0.0
  0
VISUALSTYLE
  5
FB
102
{ACAD_REACTORS
330
EF
102
}
330
EF
100
AcDbVisualStyle
  2
Brighten
 70
    12
 71
     2
 72
     2
 73
     1
 90
        0
 40
-0.6
 41
-30.0
 62
     5
 63
     7
421
 16777215
 74
     1
 91
        4
 64
     7
 65
   257
 75
     1
175
     1
 42
1.0
 92
        8
 66
     7
 43
1.0
 76
     1
 77
     6
 78
     2
 67
     7
 79
     5
170
     0
171
     0
290
     0
174
     0
 93
        1
 44
50.0
173
     0
291
     1
 45
0.0
  0
VISUALSTYLE
  5
FF
102
{ACAD_REACTORS
330
EF
102
}
330
EF
100
AcDbVisualStyle
  2
ColorChange
 70
    16
 71
     2
 72
     2
 73
     3
 90
        0
 40
-0.6
 41
-30.0
 62
     5
 63
     8
421
  8421504
 74
     1
 91
        4
 64
     7
 65
   257
 75
     1
175
     1
 42
1.0
 92
        8
 66
     8
424
  8421504
 43
1.0
 76
     1
 77
     6
 78
     2
 67
     7
 79
     5
170
     0
171
     0
290
     0
174
     0
 93
        1
 44
0.0
173
     0
291
     1
 45
0.0
  0
VISUALSTYLE
  5
F8
102
{ACAD_REACTORS
330
EF
102
}
330
EF
100
AcDbVisualStyle
  2
Conceptual
 70
     9
 71
     3
 72
     2
 73
     1
 90
        0
 40
-0.6
 41
-30.0
 62
     5
 63
     7
421
 16777215
 74
     2
 91
        2
 64
     7
 65
   257
 75
     1
175
     1
 42
40.0
 92
        8
 66
     7
 43
1.0
 76
     1
 77
     6
 78
     2
 67
     7
 79
     3
170
     0
171
     0
290
     0
174
     0
 93
        1
 44
0.0
173
     0
291
     0
 45
0.0
  0
VISUALSTYLE
  5
FA
102
{ACAD_REACTORS
330
EF
102
}
330
EF
100
AcDbVisualStyle
  2
Dim
 70
    11
 71
     2
 72
     2
 73
     1
 90
        0
 40
-0.6
 41
-30.0
 62
     5
 63
     7
421
 16777215
 74
     1
 91
        4
 64
     7
 65
   257
 75
     1
175
     1
 42
1.0
 92
        8
 66
     7
 43
1.0
 76
     1
 77
     6
 78
     2
 67
     7
 79
     5
170
     0
171
     0
290
     0
174
     0
 93
        1
 44
-50.0
173
     0
291
     1
 45
0.0
  0
VISUALSTYLE
  5
FE
102
{ACAD_REACTORS
330
EF
102
}
330
EF
100
AcDbVisualStyle
  2
Facepattern
 70
    15
 71
     2
 72
     2
 73
     1
 90
        0
 40
-0.6
 41
-30.0
 62
     5
 63
     7
421
 16777215
 74
     1
 91
        4
 64
     7
 65
   257
 75
     1
175
     1
 42
1.0
 92
        8
 66
     7
 43
1.0
 76
     1
 77
     6
 78
     2
 67
     7
 79
     5
170
     0
171
     0
290
     0
174
     0
 93
        1
 44
0.0
173
     0
291
     1
 45
0.0
  0
VISUALSTYLE
  5
F0
102
{ACAD_REACTORS
330
EF
102
}
330
EF
100
AcDbVisualStyle
  2
Flat
 70
     0
 71
     2
 72
     1
 73
     1
 90
        2
 40
-0.6
 41
30.0
 62
     5
 63
     7
421
 16777215
 74
     0
 91
        4
 64
     7
 65
   257
 75
     1
175
     1
 42
1.0
 92
        8
 66
     7
 43
1.0
 76
     1
 77
     6
 78
     2
 67
     7
 79
     5
170
     0
171
     0
290
     0
174
     0
 93
        1
 44
0.0
173
     0
291
     1
 45
0.0
  0
VISUALSTYLE
  5
F1
102
{ACAD_REACTORS
330
EF
102
}
330
EF
100
AcDbVisualStyle
  2
FlatWithEdges
 70
     1
 71
     2
 72
     1
 73
     1
 90
        2
 40
-0.6
 41
30.0
 62
     5
 63
     7
421
 16777215
 74
     1
 91
        4
 64
     7
 65
   257
 75
     1
175
     1
 42
1.0
 92
        0
 66
   257
 43
1.0
 76
     1
 77
     6
 78
     2
 67
     7
 79
     5
170
     0
171
     0
290
     0
174
     0
 93
        1
 44
0.0
173
     0
291
     1
 45
0.0
  0
VISUALSTYLE
  5
F2
102
{ACAD_REACTORS
330
EF
102
}
330
EF
100
AcDbVisualStyle
  2
Gouraud
 70
     2
 71
     2
 72
     2
 73
     1
 90
        2
 40
-0.6
 41
30.0
 62
     5
 63
     7
421
 16777215
 74
     0
 91
        4
 64
     7
 65
   257
 75
     1
175
     1
 42
1.0
 92
        0
 66
     7
 43
1.0
 76
     1
 77
     6
 78
     2
 67
     7
 79
     5
170
     0
171
     0
290
     0
174
     0
 93
        1
 44
0.0
173
     0
291
     1
 45
0.0
  0
VISUALSTYLE
  5
F3
102
{ACAD_REACTORS
330
EF
102
}
330
EF
100
AcDbVisualStyle
  2
GouraudWithEdges
 70
     3
 71
     2
 72
     2
 73
     1
 90
        2
 40
-0.6
 41
30.0
 62
     5
 63
     7
421
 16777215
 74
     1
 91
        4
 64
     7
 65
   257
 75
     1
175
     1
 42
1.0
 92
        0
 66
   257
 43
1.0
 76
     1
 77
     6
 78
     2
 67
     7
 79
     5
170
     0
171
     0
290
     0
174
     0
 93
        1
 44
0.0
173
     0
291
     1
 45
0.0
  0
VISUALSTYLE
  5
FD
102
{ACAD_REACTORS
330
EF
102
}
330
EF
100
AcDbVisualStyle
  2
Linepattern
 70
    14
 71
     2
 72
     2
 73
     1
 90
        0
 40
-0.6
 41
-30.0
 62
     5
 63
     7
421
 16777215
 74
     1
 91
        4
 64
     7
 65
   257
 75
     7
175
     7
 42
1.0
 92
        8
 66
     7
 43
1.0
 76
     1
 77
     6
 78
     2
 67
     7
 79
     5
170
     0
171
     0
290
     0
174
     0
 93
        1
 44
0.0
173
     0
291
     1
 45
0.0
  0
VISUALSTYLE
  5
F9
102
{ACAD_REACTORS
330
EF
102
}
330
EF
100
AcDbVisualStyle
  2
Realistic
 70
     8
 71
     2
 72
     2
 73
     1
 90
        0
 40
-0.6
 41
-30.0
 62
     5
 63
     7
421
 16777215
 74
     1
 91
        0
 64
     7
 65
   257
 75
     1
175
     1
 42
1.0
 92
        8
 66
     8
424
  7895160
 43
1.0
 76
     1
 77
     6
 78
     2
 67
     7
 79
     5
170
     0
171
     0
290
     0
174
     0
 93
       13
 44
0.0
173
     0
291
     0
 45
0.0
  0
VISUALSTYLE
  5
FC
102
{ACAD_REACTORS
330
EF
102
}
330
EF
100
AcDbVisualStyle
  2
Thicken
 70
    13
 71
     2
 72
     2
 73
     1
 90
        0
 40
-0.6
 41
-30.0
 62
     5
 63
     7
421
 16777215
 74
     1
 91
        4
 64
     7
 65
   257
 75
     1
175
     1
 42
1.0
 92
       12
 66
     7
 43
1.0
 76
     1
 77
     6
 78
     2
 67
     7
 79
     5
170
     0
171
     0
290
     0
174
     0
 93
        1
 44
0.0
173
     0
291
     1
 45
0.0
  0
DICTIONARYVAR
  5
146
102
{ACAD_REACTORS
330
5E
102
}
330
5E
100
DictionaryVariables
280
     0
  1
1:1
  0
DICTIONARYVAR
  5
145
102
{ACAD_REACTORS
330
5E
102
}
330
5E
100
DictionaryVariables
280
     0
  1
STANDARD
  0
DICTIONARYVAR
  5
84
102
{ACAD_REACTORS
330
5E
102
}
330
5E
100
DictionaryVariables
280
     0
  1
STANDARD
  0
DICTIONARYVAR
  5
5F
102
{ACAD_REACTORS
330
5E
102
}
330
5E
100
DictionaryVariables
280
     0
  1
2
  0
DICTIONARYVAR
  5
63
102
{ACAD_REACTORS
330
5E
102
}
330
5E
100
DictionaryVariables
280
     0
  1
1
  0
DICTIONARYVAR
  5
1AE
102
{ACAD_REACTORS
330
5E
102
}
330
5E
100
DictionaryVariables
280
     0
  1
0
  0
DICTIONARYVAR
  5
1AF
102
{ACAD_REACTORS
330
5E
102
}
330
5E
100
DictionaryVariables
280
     0
  1
0
  0
DICTIONARY
  5
173
330
EE
100
AcDbDictionary
280
     1
281
     1
  3
BUMPTILE
360
175
  3
DIFFUSETILE
360
174
  3
OPACITYTILE
360
176
  3
REFLECTIONTILE
360
177
  0
DICTIONARY
  5
162
330
7F
100
AcDbDictionary
280
     1
281
     1
  3
ACAD_ROUNDTRIP_2008_TABLESTYLE_CELLSTYLEMAP
360
1E7
  0
XRECORD
  5
175
102
{ACAD_REACTORS
330
173
102
}
330
173
100
AcDbXrecord
280
     1
270
     1
271
     1
  0
XRECORD
  5
174
102
{ACAD_REACTORS
330
173
102
}
330
173
100
AcDbXrecord
280
     1
270
     1
271
     1
  0
XRECORD
  5
176
102
{ACAD_REACTORS
330
173
102
}
330
173
100
AcDbXrecord
280
     1
270
     1
271
     1
  0
XRECORD
  5
177
102
{ACAD_REACTORS
330
173
102
}
330
173
100
AcDbXrecord
280
     1
270
     1
271
     1
  0
CELLSTYLEMAP
  5
1E7
102
{ACAD_REACTORS
330
162
102
}
330
162
100
AcDbCellStyleMap
 90
        3
300
CELLSTYLE
  1
TABLEFORMAT_BEGIN
 90
        5
170
     1
 91
        0
 92
    32768
 62
   257
 93
        1
300
CONTENTFORMAT
  1
CONTENTFORMAT_BEGIN
 90
        0
 91
        0
 92
      512
 93
        0
300

 40
0.0
140
1.0
 94
        5
 62
     0
340
11
144
6.0
309
CONTENTFORMAT_END
171
     1
301
MARGIN
  1
CELLMARGIN_BEGIN
 40
1.5
 40
1.5
 40
1.5
 40
1.5
 40
4.5
 40
4.5
309
CELLMARGIN_END
 94
        6
 95
        1
302
GRIDFORMAT
  1
GRIDFORMAT_BEGIN
 90
        0
 91
        1
 62
     0
 92
       -2
340
204
 93
        0
 40
1.125
309
GRIDFORMAT_END
 95
        2
302
GRIDFORMAT
  1
GRIDFORMAT_BEGIN
 90
        0
 91
        1
 62
     0
 92
       -2
340
204
 93
        0
 40
1.125
309
GRIDFORMAT_END
 95
        4
302
GRIDFORMAT
  1
GRIDFORMAT_BEGIN
 90
        0
 91
        1
 62
     0
 92
       -2
340
204
 93
        0
 40
1.125
309
GRIDFORMAT_END
 95
        8
302
GRIDFORMAT
  1
GRIDFORMAT_BEGIN
 90
        0
 91
        1
 62
     0
 92
       -2
340
204
 93
        0
 40
1.125
309
GRIDFORMAT_END
 95
       16
302
GRIDFORMAT
  1
GRIDFORMAT_BEGIN
 90
        0
 91
        1
 62
     0
 92
       -2
340
204
 93
        0
 40
1.125
309
GRIDFORMAT_END
 95
       32
302
GRIDFORMAT
  1
GRIDFORMAT_BEGIN
 90
        0
 91
        1
 62
     0
 92
       -2
340
204
 93
        0
 40
1.125
309
GRIDFORMAT_END
309
TABLEFORMAT_END
  1
CELLSTYLE_BEGIN
 90
        1
 91
        1
300
_TITLE
309
CELLSTYLE_END
300
CELLSTYLE
  1
TABLEFORMAT_BEGIN
 90
        5
170
     1
 91
        0
 92
        0
 62
   257
 93
        1
300
CONTENTFORMAT
  1
CONTENTFORMAT_BEGIN
 90
        0
 91
        0
 92
      512
 93
        0
300

 40
0.0
140
1.0
 94
        5
 62
     0
340
11
144
4.5
309
CONTENTFORMAT_END
171
     1
301
MARGIN
  1
CELLMARGIN_BEGIN
 40
1.5
 40
1.5
 40
1.5
 40
1.5
 40
4.5
 40
4.5
309
CELLMARGIN_END
 94
        6
 95
        1
302
GRIDFORMAT
  1
GRIDFORMAT_BEGIN
 90
        0
 91
        1
 62
     0
 92
       -2
340
204
 93
        0
 40
1.125
309
GRIDFORMAT_END
 95
        2
302
GRIDFORMAT
  1
GRIDFORMAT_BEGIN
 90
        0
 91
        1
 62
     0
 92
       -2
340
204
 93
        0
 40
1.125
309
GRIDFORMAT_END
 95
        4
302
GRIDFORMAT
  1
GRIDFORMAT_BEGIN
 90
        0
 91
        1
 62
     0
 92
       -2
340
204
 93
        0
 40
1.125
309
GRIDFORMAT_END
 95
        8
302
GRIDFORMAT
  1
GRIDFORMAT_BEGIN
 90
        0
 91
        1
 62
     0
 92
       -2
340
204
 93
        0
 40
1.125
309
GRIDFORMAT_END
 95
       16
302
GRIDFORMAT
  1
GRIDFORMAT_BEGIN
 90
        0
 91
        1
 62
     0
 92
       -2
340
204
 93
        0
 40
1.125
309
GRIDFORMAT_END
 95
       32
302
GRIDFORMAT
  1
GRIDFORMAT_BEGIN
 90
        0
 91
        1
 62
     0
 92
       -2
340
204
 93
        0
 40
1.125
309
GRIDFORMAT_END
309
TABLEFORMAT_END
  1
CELLSTYLE_BEGIN
 90
        2
 91
        1
300
_HEADER
309
CELLSTYLE_END
300
CELLSTYLE
  1
TABLEFORMAT_BEGIN
 90
        5
170
     1
 91
        0
 92
        0
 62
   257
 93
        1
300
CONTENTFORMAT
  1
CONTENTFORMAT_BEGIN
 90
        0
 91
        0
 92
      512
 93
        0
300

 40
0.0
140
1.0
 94
        2
 62
     0
340
11
144
4.5
309
CONTENTFORMAT_END
171
     1
301
MARGIN
  1
CELLMARGIN_BEGIN
 40
1.5
 40
1.5
 40
1.5
 40
1.5
 40
4.5
 40
4.5
309
CELLMARGIN_END
 94
        6
 95
        1
302
GRIDFORMAT
  1
GRIDFORMAT_BEGIN
 90
        0
 91
        1
 62
     0
 92
       -2
340
204
 93
        0
 40
1.125
309
GRIDFORMAT_END
 95
        2
302
GRIDFORMAT
  1
GRIDFORMAT_BEGIN
 90
        0
 91
        1
 62
     0
 92
       -2
340
204
 93
        0
 40
1.125
309
GRIDFORMAT_END
 95
        4
302
GRIDFORMAT
  1
GRIDFORMAT_BEGIN
 90
        0
 91
        1
 62
     0
 92
       -2
340
204
 93
        0
 40
1.125
309
GRIDFORMAT_END
 95
        8
302
GRIDFORMAT
  1
GRIDFORMAT_BEGIN
 90
        0
 91
        1
 62
     0
 92
       -2
340
204
 93
        0
 40
1.125
309
GRIDFORMAT_END
 95
       16
302
GRIDFORMAT
  1
GRIDFORMAT_BEGIN
 90
        0
 91
        1
 62
     0
 92
       -2
340
204
 93
        0
 40
1.125
309
GRIDFORMAT_END
 95
       32
302
GRIDFORMAT
  1
GRIDFORMAT_BEGIN
 90
        0
 91
        1
 62
     0
 92
       -2
340
204
 93
        0
 40
1.125
309
GRIDFORMAT_END
309
TABLEFORMAT_END
  1
CELLSTYLE_BEGIN
 90
        3
 91
        2
300
_DATA
309
CELLSTYLE_END
  0
ENDSEC
  0
EOF
